.
Авторизация | Регистрация
Хочешь лучшие торренты? Добавь свой email!
Добавить
» » В активном поиске / How to Be Single (2016) BDRip 1080p от ExKinoRay | Line скачать торрент бесплатно




    В активном поиске / How to Be Single (2016) BDRip 1080p от ExKinoRay | Line скачать торрент бесплатно

    Опубликовал: Админ | Дата: 14-05-2016, 05:00 | Просмотров: 85



    Детально о кино
    Русское название: В активном поиске
    Русское название в мировом прокате: How to Be Single
    Создали в: 2016
    Категория жанра: Комедия, мелодрама
    Главный режиссер: Кристиан Диттер

    Актеры
    Дакота Джонсон, Ребел Уилсон, Элисон Бри, Лесли Манн, Николас Браун, Джейсон Манцукас, Дэймон Уайанс мл., Колин Жост, Джейк Лэси, Андерс Холм, Сара Рамос, Ник Бейтман, Мики Гуч мл., Ванесса Рубио, Зани Джонс Мбаис, Брент Морин, Кэй Кэннон, Джудит Лайтфут Кларк, Патрик Болл, Анна Эйлинсфелд

    Сюжет фильма

    Устав от жизни со своим бойфрендом, Элис уходит от него, переезжает к старшей сестре Мэг, находит новую работу и обзаводится новой подругой Робин. Последняя оказывается страстной поклонницей ночных отжигов и пытается втянуть Элис в свою безумную жизнь, хотя та предпочитает чинные и продолжительные отношения пьяным знакомствам на вечеринках.

    Снималось в: США
    Киностудия: Flower Films (II), New Line Cinema, Rickard Pictures
    Время просмотра: 01: 49: 51
    Перевод текста: Дублированный | Чистый звук
    Файл
    Кодек для видео: MPEG-4
    Качество фильма: BDRip 1080p
    Информация о видео: 1920x800, 15.7 Mbit/s, 23.976 fps
    Информация о звуке:
    Информация о звуке #01: 48 kHz, AC3, 2.0, 192 Kbps | Дублированный, Чистый звук |
    Информация о звуке #02: 48 kHz, DTS, 5.1, 1510 kbps | Оригинал |
    Субтитры: Английские
    Релиз подготовил: Автор релиза:

    MI
    Общее
    Уникальный идентификатор : 208252319909658637341455919362716045136 (0x9CABF01992AC833AA1D9E7B0F33D8F50)
    Полное имя : G: VideoHow.to.Be.Single.2016.BDRip.1080p.ExKinoRay.mkv
    Формат : Matroska
    Версия формата : Version 4/Version 2
    Размер файла : 13, 4 Гбайт
    Продолжительность : 1 ч. 49 м.
    Общий поток : 17, 4 Мбит/сек
    Название фильма : How.to.Be.Single.2016.BDRip.1080p.ExKinoRay
    Дата кодирования : UTC 2016-05-13 13: 03: 12
    Программа кодирования : mkvmerge v8.3.0 (;Over the Horizon;) 64bit
    Библиотека кодирования : libebml v1.3.1 + libmatroska v1.4.2
    Видео
    Идентификатор : 1
    Формат : AVC
    Формат/Информация : Advanced Video Codec
    Профиль формата : High@L4.1
    Параметр CABAC формата : Да
    Параметр ReFrames формата : 5 кадров
    Идентификатор кодека : V_MPEG4/ISO/AVC
    Продолжительность : 1 ч. 49 м.
    Битрейт : 15, 7 Мбит/сек
    Ширина : 1920 пикселей
    Высота : 800 пикселей
    Соотношение сторон : 2, 40: 1
    Режим частоты кадров : Постоянный
    Частота кадров : 23, 976 (24000/1001) кадра/сек
    Цветовое пространство : YUV
    Субдискретизация насыщенности : 4: 2: 0
    Битовая глубина : 8 бит
    Тип развёртки : Прогрессивная
    Бит/(Пиксели*Кадры) : 0.427
    Размер потока : 12, 1 Гбайт (90%)
    Библиотека кодирования : x264 core 148 r2665+53 6629127 t_mod_Custom 8-bit@all X86_64
    Настройки программы : cabac=1/ref=5/deblock=1: -3: -3/analyse=0x3: 0x133/me=umh/subme=11/psy=1/fade_compensate=0.00/psy_rd=1.10: 0.00/mixed_ref=1/me_range=32/chroma_me=1/trellis=2/8x8dct=1/cqm=0/deadzone=21, 11/fast_pskip=0/chroma_qp_offset=-2/threads=16/lookahead_threads=2/sliced_threads=0/nr=0/decimate=0/interlaced=0/bluray_compat=0/constrained_intra=0/fgo=0/bframes=8/b_pyramid=2/b_adapt=2/b_bias=0/direct=3/weightb=1/open_gop=0/weightp=2/keyint=250/keyint_min=23/scenecut=40/intra_refresh=0/rc_lookahead=150/rc=crf/mbtree=0/crf=18.2000/qcomp=0.65/qpmin=0: 0: 0/qpmax=69: 69: 69/qpstep=4/vbv_maxrate=50000/vbv_bufsize=62500/crf_max=0.0/nal_hrd=none/filler=0/ip_ratio=1.30/pb_ratio=1.20/aq=3: 0.80/aq-sensitivity=10.00/aq-factor=1.00: 1.00: 1.00/aq2=0/aq3=0
    Язык : English
    Default : Да
    Forced : Нет
    Цветовой диапазон : Limited
    Коэффициенты матрицы : BT.709
    Аудио #1
    Идентификатор : 2
    Формат : E-AC-3
    Формат/Информация : Audio Coding 3
    Параметр Endianness формата : Big
    Идентификатор кодека : A_EAC3
    Продолжительность : 1 ч. 49 м.
    Вид битрейта : Постоянный
    Битрейт : 192 Кбит/сек
    Каналы : 2 канала
    Расположение каналов : Front: L R
    Частота : 48, 0 КГц
    Частота кадров : 187, 500 кадров/сек (256 spf)
    Метод сжатия : С потерями
    Размер потока : 151 Мбайт (1%)
    Заголовок : DUB Line
    Язык : Russian
    Default : Да
    Forced : Нет
    Аудио #2
    Идентификатор : 3
    Формат : DTS
    Формат/Информация : Digital Theater Systems
    Режим : 16
    Параметр Endianness формата : Big
    Идентификатор кодека : A_DTS
    Продолжительность : 1 ч. 49 м.
    Вид битрейта : Постоянный
    Битрейт : 1509 Кбит/сек
    Каналы : 6 каналов
    Расположение каналов : Front: L C R, Side: L R, LFE
    Частота : 48, 0 КГц
    Частота кадров : 93, 750 кадра/сек (512 spf)
    Битовая глубина : 24 бит
    Метод сжатия : С потерями
    Размер потока : 1, 16 Гбайт (9%)
    Язык : English
    Default : Нет
    Forced : Нет
    Текст #1
    Идентификатор : 4
    Формат : UTF-8
    Идентификатор кодека : S_TEXT/UTF8
    Идентификатор кодека/Информация : UTF-8 Plain Text
    Продолжительность : 1 ч. 48 м.
    Битрейт : 76 бит/сек
    Count of elements : 1941
    Размер потока : 60, 9 Кбайт (0%)
    Язык : English
    Default : Нет
    Forced : Нет
    Текст #2
    Идентификатор : 5
    Формат : UTF-8
    Идентификатор кодека : S_TEXT/UTF8
    Идентификатор кодека/Информация : UTF-8 Plain Text
    Продолжительность : 1 ч. 48 м.
    Битрейт : 82 бит/сек
    Count of elements : 2089
    Размер потока : 66, 2 Кбайт (0%)
    Заголовок : SDH
    Язык : English
    Default : Нет
    Forced : Нет
    Меню
    00: 00: 00.000 : en: Chapter 01
    00: 10: 18.493 : en: Chapter 02
    00: 20: 34.775 : en: Chapter 03
    00: 31: 17.751 : en: Chapter 04
    00: 41: 28.194 : en: Chapter 05
    00: 52: 06.832 : en: Chapter 06
    01: 03: 33.560 : en: Chapter 07
    01: 16: 21.160 : en: Chapter 08
    01: 24: 43.036 : en: Chapter 09
    01: 32: 11.818 : en: Chapter 10
    01: 43: 26.826 : en: Chapter 11
    Скриншоты


    Онлайн видео В активном поиске


    Размер скачиваемого торрента: 13.38 GB (14363585868 Bytes)

    В активном поиске/How to Be Single (2016) BDRip 1080p от ExKinoRay | Line
    загрузка...
    Рейтинг →
     (голосов: 1, оценка 5/5, голосовать можно 1 раз )

    Другие торренты по теме:

  • В активном поиске / How to Be Single (2016)
  • В активном поиске / How to Be Single (2016) WEB-DLRip | звук с CAMRip
  • В активном поиске / How to Be Single (2016) BDRemux 1080p от ExKinoRay | Line
  • В активном поиске / How to Be Single (2016) BDRip 720p | iTunes
  • В активном поиске / How to Be Single (2016) BDRip 720p | Лицензия
  • В активном поиске / How to Be Single (2016) BDRip-AVC от New-Team | Лицензия
  • В активном поиске / How to Be Single (2016) BDRip-AVC от New-Team | Лицензия
  • В активном поиске / How to Be Single (2016) BDRip 1080p от ExKinoRay | Лицензия


    • Комментарии (0):

      Информация

      Информация

        Посетители, находящиеся в группе Гости, не могут оставлять комментарии в данной новости.

        ↓ Меню



        ↓ Опрос

        А Вы добавили сайт в закладки?
        Да
        Не


        Top 10 за месяц (Фильмы)