.
Авторизация | Регистрация
Хочешь лучшие торренты? Добавь свой email!
Добавить
» » И грянул шторм / The Finest Hours (2016) BDRemux 1080p от ExKinoRay | Line скачать торрент бесплатно




    И грянул шторм / The Finest Hours (2016) BDRemux 1080p от ExKinoRay | Line скачать торрент бесплатно

    Опубликовал: Админ | Дата: 14-05-2016, 05:00 | Просмотров: 86



    Детально о кино
    Русское название: И грянул шторм
    Русское название в мировом прокате: The Finest Hours
    Создали в: 2016
    Категория жанра: Боевик, триллер, драма, история
    Главный режиссер: Крэйг Гиллеспи

    Актеры
    Крис Пайн, Кейси Аффлек, Бен Фостер, Эрик Бана, Холлидей Грейнджер, Джон Ортис, Кайл Галлнер, Джон Магаро, Грэм МакТавиш, Майкл Рэймонд-Джеймс, Бо Напп, Джош Стюарт, Абрахам Бенруби, Кейнан Лонсдейл, Рэйчел Броснахэн, Бенжамин Колдык, Мэттью Мехер, Джесси Габбар, Александр Кук, Дэнни Коннелли

    Сюжет фильма

    18 февраля 1952 года на побережье Новой Англии обрушился сильнейший ураган. Танкер Пендлтон, направлявшийся в Бостон, был буквально разорван на две части и тридцать два моряка оказались пойманными в ловушку на тонущем судне. Старший ассистент инженера Рэй Сайберт взял в свои руки управление и убедил своих товарищей начать работать сообща, чтобы добраться живыми до берега. Тем временем сообщения о крушении танкера поступили на станцию Береговой Охраны США в г. Чатаме, штат Массачусетс. Офицер Дэниэл Клафф принял решение начать рискованную операцию по спасению команды Пендлтона. Четверо спасателей во главе с капитаном Берни Вебером на деревянной шлюпке со слабым двигателем и почти без средств навигации, должны будут дать отпор гигантским волнам и ураганному ветру, чтобы спасти терпящих бедствие моряков… Фильм основан на реальных событиях.

    Снималось в: США
    Киностудия: Bergsten Music, Walt Disney Pictures, Whitaker Entertainment
    Время просмотра: 01: 57: 17
    Перевод текста: Дублированный | Чистый звук
    Файл
    Кодек для видео: MPEG-4
    Качество фильма: BDRemux 1080p
    Информация о видео: 1920x1080, 30.8 Mbit/s, 23.976 fps
    Информация о звуке:
    Информация о звуке #01: 48 kHz, AC3, 2.0, 256 Kbps | Дублированный, Чистый звук |
    Информация о звуке #02: 48 kHz, DTS-HD MA, 7.1, 5338 kbps | Оригинал |
    Субтитры: Русские, английские
    Релиз подготовил: Автор релиза:

    MI
    Общее
    Уникальный идентификатор : 254896470328718221600973495649599574169 (0xBFC346452371C833A8E4177881455099)
    Полное имя : G: VideoThe.Finest.Hours.2016.BDREMUX.1080p.ExKinoRay.mkv
    Формат : Matroska
    Версия формата : Version 4/Version 2
    Размер файла : 29, 8 Гбайт
    Продолжительность : 1 ч. 57 м.
    Режим общего битрейта : Переменный
    Общий поток : 36, 4 Мбит/сек
    Название фильма : The.Finest.Hours.2016.BDREMUX.1080p.ExKinoRay
    Дата кодирования : UTC 2016-05-13 16: 52: 42
    Программа кодирования : mkvmerge v8.3.0 (;Over the Horizon;) 64bit
    Библиотека кодирования : libebml v1.3.1 + libmatroska v1.4.2
    Видео
    Идентификатор : 1
    Формат : AVC
    Формат/Информация : Advanced Video Codec
    Профиль формата : High@L4.1
    Параметр CABAC формата : Да
    Параметр ReFrames формата : 4 кадра
    Идентификатор кодека : V_MPEG4/ISO/AVC
    Продолжительность : 1 ч. 57 м.
    Вид битрейта : Переменный
    Битрейт : 30, 8 Мбит/сек
    Максимальный битрейт : 32, 9 Мбит/сек
    Ширина : 1920 пикселей
    Высота : 1080 пикселей
    Соотношение сторон : 16: 9
    Режим частоты кадров : Постоянный
    Частота кадров : 23, 976 (23976/1000) кадра/сек
    Частота кадров в оригинале : 23, 976 (24000/1001) кадра/сек
    Цветовое пространство : YUV
    Субдискретизация насыщенности : 4: 2: 0
    Битовая глубина : 8 бит
    Тип развёртки : Прогрессивная
    Бит/(Пиксели*Кадры) : 0.620
    Размер потока : 25, 3 Гбайт (85%)
    Заголовок : The.Finest.Hours.2016.BDREMUX.1080p.ExKinoRay.***селезень***
    Язык : English
    Default : Да
    Forced : Нет
    Аудио #1
    Идентификатор : 2
    Формат : AC-3
    Формат/Информация : Audio Coding 3
    Расширение режима : CM (complete main)
    Параметр Endianness формата : Big
    Идентификатор кодека : A_AC3
    Продолжительность : 1 ч. 57 м.
    Вид битрейта : Постоянный
    Битрейт : 256 Кбит/сек
    Каналы : 2 канала
    Расположение каналов : Front: L R
    Частота : 48, 0 КГц
    Частота кадров : 31, 250 кадров/сек (1536 spf)
    Метод сжатия : С потерями
    Задержка видео : 500 мс.
    Размер потока : 215 Мбайт (1%)
    Заголовок : DUB Line
    Язык : Russian
    Default : Да
    Forced : Нет
    Аудио #2
    Идентификатор : 3
    Формат : DTS
    Формат/Информация : Digital Theater Systems
    Профиль формата : MA/Core
    Режим : 16
    Параметр Endianness формата : Big
    Идентификатор кодека : A_DTS
    Продолжительность : 1 ч. 57 м.
    Вид битрейта : Переменный/Постоянный
    Битрейт : 5338 Кбит/сек/1509 Кбит/сек
    Каналы : 8 каналов/6 каналов
    Расположение каналов : Front: L C R, Side: L R, Back: L R, LFE/Front: L C R, Side: L R, LFE
    Частота : 48, 0 КГц
    Частота кадров : 93, 750 кадра/сек (512 spf)
    Битовая глубина : 24 бит
    Метод сжатия : Без потерь/Lossy
    Размер потока : 4, 37 Гбайт (15%)
    Заголовок : Original
    Язык : English
    Default : Нет
    Forced : Нет
    Текст #1
    Идентификатор : 4
    Формат : UTF-8
    Идентификатор кодека : S_TEXT/UTF8
    Идентификатор кодека/Информация : UTF-8 Plain Text
    Продолжительность : 1 ч. 49 м.
    Битрейт : 72 бит/сек
    Count of elements : 968
    Размер потока : 58, 2 Кбайт (0%)
    Язык : Russian
    Default : Нет
    Forced : Нет
    Текст #2
    Идентификатор : 5
    Формат : UTF-8
    Идентификатор кодека : S_TEXT/UTF8
    Идентификатор кодека/Информация : UTF-8 Plain Text
    Продолжительность : 1 ч. 48 м.
    Битрейт : 46 бит/сек
    Count of elements : 942
    Размер потока : 36, 9 Кбайт (0%)
    Язык : English
    Default : Нет
    Forced : Нет
    Меню
    00: 00: 00.000 : en: 00: 00: 00.000
    00: 09: 13.887 : en: 00: 09: 13.887
    00: 14: 22.195 : en: 00: 14: 22.195
    00: 19: 52.108 : en: 00: 19: 52.108
    00: 22: 56.792 : en: 00: 22: 56.792
    00: 28: 34.379 : en: 00: 28: 34.379
    00: 34: 05.210 : en: 00: 34: 05.210
    00: 36: 59.384 : en: 00: 36: 59.384
    00: 42: 50.902 : en: 00: 42: 50.902
    00: 45: 01.157 : en: 00: 45: 01.157
    00: 46: 59.442 : en: 00: 46: 59.442
    00: 48: 44.463 : en: 00: 48: 44.463
    00: 50: 12.551 : en: 00: 50: 12.551
    00: 55: 53.141 : en: 00: 55: 53.141
    01: 04: 47.967 : en: 01: 04: 47.967
    01: 08: 58.634 : en: 01: 08: 58.634
    01: 11: 38.836 : en: 01: 11: 38.836
    01: 16: 16.489 : en: 01: 16: 16.489
    01: 20: 30.325 : en: 01: 20: 30.325
    01: 33: 30.480 : en: 01: 33: 30.480
    01: 42: 27.641 : en: 01: 42: 27.641
    01: 49: 40.324 : en: 01: 49: 40.324
    Скриншоты


    Онлайн видео И грянул шторм


    Размер скачиваемого торрента: 29.85 GB (32048842084 Bytes)

    И грянул шторм/The Finest Hours (2016) BDRemux 1080p от ExKinoRay | Line
    загрузка...
    Рейтинг →
     (голосов: 1, оценка 4/5, голосовать можно 1 раз )

    Другие торренты по теме:

  • И грянул шторм / Против шторма (2016)
  • И грянул шторм / The Finest Hours (2016) WEB-DL 1080p | Звук с TS
  • И грянул шторм / The Finest Hours (2016) WEB-DL 1080p | Line
  • И грянул шторм / The Finest Hours (2016) WEB-DLRip-AVC | Line
  • И грянул шторм / The Finest Hours (2016) WEB-DLRip от GeneralFilm | Line
  • И грянул шторм / The Finest Hours (2016)
  • И грянул шторм / The Finest Hours / 2016 / ДБ (Line) / WEB-DLRip
  • И грянул шторм / The Finest Hours (2016) BDRip 1080p | Line


    • Комментарии (0):

      Информация

      Информация

        Посетители, находящиеся в группе Гости, не могут оставлять комментарии в данной новости.

        ↓ Меню



        ↓ Опрос

        А Вы добавили сайт в закладки?
        Да
        Не


        Top 10 за месяц (Фильмы)