.
Авторизация | Регистрация
Хочешь лучшие торренты? Добавь свой email!
Добавить
» » Флинтстоуны / The Flintstones (1994) HDTVRip-AVC | P скачать торрент бесплатно




    Флинтстоуны / The Flintstones (1994) HDTVRip-AVC | P скачать торрент бесплатно

    Опубликовал: Админ | Дата: 11-05-2016, 05:00 | Просмотров: 53



    Русское название: Флинтстоуны
    Русское название в мировом прокате: The Flintstones
    Создали в: 1994
    Снималось в: США
    Категория жанра: Фэнтези, Комедия, Семейный

    Главный режиссер: Брайан Левант
    Продюсер: Джозеф Барбера, Брюс Коэн, Уильям Ханна

    Актеры
    Джон Гудман, Элизабет Перкинс, Рик Морэнис, Рози О;Доннелл, Кайл МакЛахлан, Холли Берри, Элизабет Тейлор, Дэнн Флорек, Ричард Молл, Ирвин Кейес

    Описание фильма: Двое закадычных друзей Фред Флинтстоун и Барни Раббл уже много лет работают на каменоломне в Бедроке. Однажды начальство каменоломни решает провести тест среди рабочих, дабы выявить способных работников, которых ждёт повышение, а остальных - просто-напросто уволить. Фред уверен, что не пройдёт этот тест и совсем потерял надежду, однако его добрый друг Барни, жаждущий отблагодарить приятеля за всю помощь, которую тот ему оказывал, незаметно поменял ответы на тест Фреда на свои. После чего Фреда повысили на работе, а Барни уволили. И чем шикарнее со временем становилась жизнь семьи Флинтстоунов, тем меньше крепла дружба Фреда и Барни.
    Время просмотра: 01: 26: 47
    Перевод текста: Профессиональный (Многоголосый закадровый)
    Субтитры: Отсутствуют

    Качество фильма видео: HDTVRip
    Тип видео: MKV
    Информация о видео: MPEG-4 AVC/H.264, 3500 Kbps, 1024 x 554
    Информация о звуке: Русский AC3 2.0, 192 Kbps, 48.0 KHz (Многоголосый закадровый)

    MediaInfo

    Полное имя : The Flintstones.mkv
    Формат : Matroska
    Версия формата : Version 1
    Размер файла : 2, 24 Гбайт
    Продолжительность : 1 ч. 26 м.
    Общий поток : 3694 Кбит/сек
    Дата кодирования : UTC 2012-12-31 14: 42: 30
    Программа кодирования : mkvmerge v2.4.1 (;Use Me;) built on Dec 5 2008 18: 30: 05
    Библиотека кодирования : libebml v0.7.7 + libmatroska v0.8.1
    Видео
    Идентификатор : 1
    Формат : AVC
    Формат/Информация : Advanced Video Codec
    Профиль формата : High@L4.1
    Параметр CABAC формата : Да
    Параметр ReFrames формата : 10 кадров
    Идентификатор кодека : V_MPEG4/ISO/AVC
    Продолжительность : 1 ч. 26 м.
    Битрейт : 3500 Кбит/сек
    Ширина : 1024 пикселя
    Высота : 554 пикселя
    Соотношение сторон : 1, 85: 1
    Режим частоты кадров : Постоянный
    Частота кадров : 25, 000 кадров/сек
    Цветовое пространство : YUV
    Субдискретизация насыщенности : 4: 2: 0
    Битовая глубина : 8 бит
    Тип развёртки : Прогрессивная
    Бит/(Пиксели*Кадры) : 0.247
    Размер потока : 2, 08 Гбайт (93%)
    Заголовок : Флинтстоуны (1994)
    Библиотека кодирования : x264 core 129 r2230 1cffe9f
    Настройки программы : cabac=1/ref=10/deblock=1: -3: -3/analyse=0x3: 0x133/me=umh/subme=10/psy=1/psy_rd=1.00: 0.10/mixed_ref=1/me_range=48/chroma_me=1/trellis=2/8x8dct=1/cqm=0/deadzone=21, 11/fast_pskip=0/chroma_qp_offset=-3/threads=6/lookahead_threads=1/sliced_threads=0/nr=0/decimate=1/interlaced=0/bluray_compat=0/constrained_intra=0/bframes=5/b_pyramid=2/b_adapt=2/b_bias=0/direct=3/weightb=1/open_gop=0/weightp=2/keyint=250/keyint_min=23/scenecut=40/intra_refresh=0/rc_lookahead=40/rc=2pass/mbtree=1/bitrate=3500/ratetol=1.0/qcomp=0.60/qpmin=10/qpmax=51/qpstep=4/cplxblur=20.0/qblur=0.5/ip_ratio=1.40/aq=1: 1.00
    Язык : English
    Аудио
    Идентификатор : 2
    Формат : AC-3
    Формат/Информация : Audio Coding 3
    Расширение режима : CM (complete main)
    Параметр Endianness формата : Big
    Идентификатор кодека : A_AC3
    Продолжительность : 1 ч. 26 м.
    Вид битрейта : Постоянный
    Битрейт : 192 Кбит/сек
    Каналы : 2 канала
    Расположение каналов : Front: L R
    Частота : 48, 0 КГц
    Битовая глубина : 16 бит
    Метод сжатия : С потерями
    Размер потока : 119 Мбайт (5%)
    Заголовок : AC3 (Многоголосный)
    Язык : Russian

    Дополнительно

    ? Картина снималась в двух каньонах - в штатах Юта и Калифорния - с 17 мая по 20 августа 1993 года.
    ? Этот фильм так и не вышел бы на экраны, если бы Джон Гудман отказался бы от роли Фреда Флинстоуна.
    ? Роль Розетты Стоун по первоначальному плану должна была играть Шэрон Стоун, но из-за договорных обязательств фильма Специалист не смогла принять участие в съемках.


    Скриншоты


    Онлайн видео Флинтстоуны


    Размер скачиваемого торрента: 2.24 GB (2404541643 Bytes)

    Флинтстоуны/The Flintstones (1994) HDTVRip-AVC | P
    загрузка...
    Рейтинг →
     (голосов: 1, оценка 4/5, голосовать можно 1 раз )

    Другие торренты по теме:

  • Флинтстоуны / The Flintstones (1960-1966) DVDRip | P
  • Флинтстоуны / The Flintstones (1994) BDRip от HQCLUB


    • Комментарии (0):

      Информация

      Информация

        Посетители, находящиеся в группе Гости, не могут оставлять комментарии в данной новости.

        ↓ Меню



        ↓ Опрос

        А Вы добавили сайт в закладки?
        Да
        Не


        Top 10 за месяц (Фильмы)