.
Авторизация | Регистрация
Хочешь лучшие торренты? Добавь свой email!
Добавить
» » Сотня / The 100 (2016) WEB-DLRip | AlexFilm, LostFilm, NewStudio скачать торрент бесплатно




    Сотня / The 100 (2016) WEB-DLRip | AlexFilm, LostFilm, NewStudio скачать торрент бесплатно

    Опубликовал: Админ | Дата: 10-05-2016, 14:29 | Просмотров: 33



    Детально о кино
    Русское название: Сотня
    Русское название в мировом прокате: The 100
    Создали в: 2016
    Категория жанра: фантастика, драма, детектив, боевик
    Главный режиссер: Дин Уайт, Мэтт Барбер, Джон Беринг, Милан Чейлов

    Актеры
    Элиза Тейлор-Коттер, Мари Авгеропулос, Сачин Сахель, Линдси Морган, Женевьев Бюкнер, Ричард Хэрмон, Джарод Джозеф, Челси Рейст, Крис Браунинг, Джош Ссеттуба

    Сюжет фильма

    События в сериале начинают разворачиваться по прошествии девяносто семи лет после того, как всю цивилизацию уничтожила страшная атомная война.
    Высоко в космосе на орбите Земли летает большой космический корабль, где находятся те, кто выжил после страшной катастрофы. Именно с этого последнего пристанища людей на Землю отправляют космический челнок, на котором находятся сто малолетних преступников…

    Снималось в: США
    Киностудия: The CW
    Время просмотра: 00: 42: 30
    Язык: Русский, Английский
    Перевод текста: Профессиональный (многоголосый, закадровый)
    Файл
    Качество фильма: WEB-DLRip
    Тип видео: AVI
    Кодек для видео: XviD
    Информация о звуке кодек: AC3
    Информация о видео: 720x400, 23.976 fps, 2000 kbps
    Информация о звуке Rus: 48 kHz, AC3, 6 ch, 384 kbps - Многоголосый закадровый, AlexFilm
    Информация о звуке Rus: 48 kHz, AC3, 6 ch, 384 kbps - Многоголосый закадровый, LostFilm
    Информация о звуке Rus: 48 kHz, AC3, 6 ch, 384 kbps - Многоголосый закадровый, NewStudio
    Информация о звуке Eng: 48 kHz, AC3, 6 ch, 384 kbps - Original
    Релиз:
    Работа над релизом
    Рип: ^Мурлыська^
    Звук: k-marat-s (lostfilm, alexfilm)
    Скриншоты

    Список серий
    01. Ван;эда. Часть 1/Wanheda: Part 1
    02. Ван;эда. Часть 2/Wanheda: Part 2
    03. Всяк сюда входящий/Ye Who Enter Here
    04. Следи за престолом/Watch the Thrones
    05. Акелдама/Hakeldama
    06. Жестокая жатва/Bitter Harvest
    07. Тринадцать/Thirteen
    08. Условия и положения/Terms and Conditions
    09. Украденное пламя/Stealing Fire
    10. Падший/Fallen
    11. Никогда/Nevermore
    12. Демоны/Demons
    13. Присоединись или умри/Join or Die
    14. Багряный рассвет/Red Sky at Morning
    MediaInfo
    General
    Format : AVI
    Format/Info : Audio Video Interleave
    File size : 1.06 GiB
    Duration : 42mn 28s
    Overall bit rate : 3 565 Kbps
    Writing application : VirtualDubModRus 1.5.10.2 (build 2542/release)
    Writing library : VirtualDubMod build 2542/release
    Video
    ID : 0
    Format : MPEG-4 Visual
    Format profile : Advanced Simple@L5
    Format settings, BVOP : 1
    Format settings, QPel : No
    Format settings, GMC : No warppoints
    Format settings, Matrix : Default (MPEG)
    Codec ID : XVID
    Codec ID/Hint : XviD
    Duration : 42mn 28s
    Bit rate : 2 006 Kbps
    Width : 720 pixels
    Height : 400 pixels
    Display aspect ratio : 16: 9
    Frame rate : 23.976 fps
    Color space : YUV
    Chroma subsampling : 4: 2: 0
    Bit depth : 8 bits
    Scan type : Progressive
    Compression mode : Lossy
    Bits/(Pixel*Frame) : 0.291
    Stream size : 609 MiB (56%)
    Writing library : XviD 1.2.1 (UTC 2008-12-04)
    Audio #1
    ID : 1
    Format : AC-3
    Format/Info : Audio Coding 3
    Mode extension : CM (complete main)
    Format settings, Endianness : Big
    Codec ID : 2000
    Duration : 42mn 28s
    Bit rate mode : Constant
    Bit rate : 384 Kbps
    Channel(s) : 6 channels
    Channel positions : Front: L C R, Side: L R, LFE
    Sampling rate : 48.0 KHz
    Bit depth : 16 bits
    Compression mode : Lossy
    Stream size : 117 MiB (11%)
    Alignment : Split accross interleaves
    Interleave, duration : 42 ms (1.00 video frame)
    Interleave, preload duration : 500 ms
    Audio #2
    ID : 2
    Format : AC-3
    Format/Info : Audio Coding 3
    Mode extension : CM (complete main)
    Format settings, Endianness : Big
    Codec ID : 2000
    Duration : 42mn 28s
    Bit rate mode : Constant
    Bit rate : 384 Kbps
    Channel(s) : 6 channels
    Channel positions : Front: L C R, Side: L R, LFE
    Sampling rate : 48.0 KHz
    Bit depth : 16 bits
    Compression mode : Lossy
    Stream size : 117 MiB (11%)
    Alignment : Split accross interleaves
    Interleave, duration : 42 ms (1.00 video frame)
    Interleave, preload duration : 500 ms
    Audio #3
    ID : 3
    Format : AC-3
    Format/Info : Audio Coding 3
    Mode extension : CM (complete main)
    Format settings, Endianness : Big
    Codec ID : 2000
    Duration : 42mn 28s
    Bit rate mode : Constant
    Bit rate : 384 Kbps
    Channel(s) : 6 channels
    Channel positions : Front: L C R, Side: L R, LFE
    Sampling rate : 48.0 KHz
    Bit depth : 16 bits
    Compression mode : Lossy
    Stream size : 117 MiB (11%)
    Alignment : Split accross interleaves
    Interleave, duration : 42 ms (1.00 video frame)
    Interleave, preload duration : 500 ms
    Audio #4
    ID : 4
    Format : AC-3
    Format/Info : Audio Coding 3
    Mode extension : CM (complete main)
    Format settings, Endianness : Big
    Codec ID : 2000
    Duration : 42mn 28s
    Bit rate mode : Constant
    Bit rate : 384 Kbps
    Channel(s) : 6 channels
    Channel positions : Front: L C R, Side: L R, LFE
    Sampling rate : 48.0 KHz
    Bit depth : 16 bits
    Compression mode : Lossy
    Stream size : 117 MiB (11%)
    Alignment : Split accross interleaves
    Interleave, duration : 42 ms (1.00 video frame)
    Interleave, preload duration : 500 ms
    Раздача ведется путем добавления новых серий
    Когда раздача ведётся путём добавления новых серий, при каждом добавлении создётся новый торрент. Чтобы начать докачку новой серии, пользователям необходимо сделать следующее:
    (1) остановить скачивание,
    (2) удалить старый торрент у себя из клиента (старые серии удалять не надо),
    (3) скачать новый торрент и запустить его у себя в клиенте вместо старого, при этом указать клиенту путь в старую папку, куда и должно происходить скачивание новых серий.
    Ваш клиент при этом должен произвести хеширование (проверку) старой папки (если не производит сам - помогите ему сделать это), и будет докачивать только те серии, которых у вас ещё нет. Старые серии при этом не удаляются, а продолжают раздаваться!
    Eсли вы уже удалили старые серии, то предотвратить повторную закачку старых серий можно, отжав галочку в соответсвующих местах при запуске нового торрента. По возможности, желательно не удалять старые серии как можно дольше, чтобы релизёр не столько продолжал раздавать старые серии, а смог сконцентрироваться на новых.

    Размер скачиваемого торрента: 14.68 GB (15763859456 Bytes)

    Сотня/The 100 (2016) WEB-DLRip | AlexFilm, LostFilm, NewStudio
    загрузка...
    Рейтинг →
     (голосов: 1, оценка 5/5, голосовать можно 1 раз )

    Другие торренты по теме:

  • Сотня / 100 / The 100 / The Hundred (2014) WEB-DLRip-AVC l NewStudio
  • Сотня / The 100 (2014) WEB-DLRip-AVC от MediaClub | LostFilm, AlexFilm, NewStudio, BaiBaKo
  • Сотня / 100 / The 100 / The Hundred (2014) WEB-DLRip-AVC l NewStudio скачать через торрент бесплатно
  • Сотня / 100 / The 100 / The Hundred (2014) WEB-DLRip-AVC l NewStudio скачать через торрент бесплатно
  • Сотня / 100 / The 100 / The Hundred (2014) WEB-DLRip-AVC l NewStudio скачать через торрент бесплатно
  • Сотня / 100 / The 100 / The Hundred (2014) WEB-DLRip-AVC от MediaClub | LostFilm, AlexFilm, NewStudio, BaiBaKo
  • Сотня / 100 / The 100 / The Hundred (2014) WEB-DLRip-AVC l NewStudio скачать через торрент бесплатно
  • Сотня / 100 / The 100 / The Hundred (2014) WEB-DLRip-AVC l NewStudio скачать через торрент бесплатно


    • Комментарии (0):

      Информация

      Информация

        Посетители, находящиеся в группе Гости, не могут оставлять комментарии в данной новости.

        ↓ Меню



        ↓ Опрос

        А Вы добавили сайт в закладки?
        Да
        Не


        Top 10 за месяц (Фильмы)