.
Авторизация | Регистрация
Хочешь лучшие торренты? Добавь свой email!
Добавить
» » Вудлон / Woodlawn (2015) HDRip | P | iTunes скачать торрент бесплатно




    Вудлон / Woodlawn (2015) HDRip | P | iTunes скачать торрент бесплатно

    Опубликовал: Админ | Дата: 10-05-2016, 14:28 | Просмотров: 53



    Создали в: США/Cresent City Pictures, Red Sky Studios
    Категория жанра: Драма, Спорт
    Главный режиссер: Эндрю Эрвин, Эрвин Бразерс
    Продюсер: Кевин Даунс, Дэрил С. Лефевр, Дэн Этчисон
    Актеры: Шон Эстин, Ник Бишоп, Калеб Кастилло, Шерри Шеперд, Джон Войт, Джой Брансон, Лэнс Э. Николс, Си Томас Хауэлл, Кевин Сайзмор, Девон Франклин

    Описание фильма

    Вдохновляющий фильм, основанный на реальной истории любви и единения в школе, раздираемой ненавистью и расизмом в 1970-х годах.
    В 1973 году духовное пробуждение захватило сердца почти каждого игрока школьной футбольной команды Вудлон, включая тренера Тэнди Гералда. Их вера в Бога и единство приводит к небывалому успеху и рождению первой афроамериканской суперзвезды Тони Натана. Именно вера в Бога дает успех ему и всей команде.

    Время просмотра: 02: 03: 57
    Качество фильма видео: HDRip Сэмпл
    Перевод текста: Профессиональный многоголосый (iTunes)
    Субтитры: Отсутствуют
    Информация о видео: MPEG4, XviD, 720x304 (2.35: 1), 23.976 fps, 1 973 Kbps (0.376 bit/pixel)
    Информация о звуке: AC-3, 48.0 KHz, 6 ch, 384 Kbps, CBR
    Mediainfo:

    Формат : AVI
    Формат/Информация : Audio Video Interleave
    Профиль формата : OpenDML
    Размер файла : 2, 05 Гбайт
    Продолжительность : 2 ч. 3 м.
    Общий поток : 2369 Кбит/сек
    Программа кодирования : VirtualDubMod 1.5.10.2 (build 2540/release)
    Библиотека кодирования : VirtualDubMod build 2540/release
    Видео
    Идентификатор : 0
    Формат : MPEG-4 Visual
    Профиль формата : Advanced Simple@L5
    Параметр BVOP формата : 2
    Параметр QPel формата : Нет
    Параметр GMC формата : Без точки перехода
    Параметр матрицы формата : Default (MPEG)
    Идентификатор кодека : XVID
    Идентификатор кодека/Подсказка : XviD
    Продолжительность : 2 ч. 3 м.
    Битрейт : 1973 Кбит/сек
    Ширина : 720 пикселей
    Высота : 304 пикселя
    Соотношение сторон : 2, 35: 1
    Частота кадров : 23, 976 кадра/сек
    Цветовое пространство : YUV
    Субдискретизация насыщенности : 4: 2: 0
    Битовая глубина : 8 бит
    Тип развёртки : Прогрессивная
    Метод сжатия : С потерями
    Бит/(Пиксели*Кадры) : 0.376
    Размер потока : 1, 71 Гбайт (83%)
    Библиотека кодирования : XviD 1.2.1 (UTC 2008-12-04)
    Аудио
    Идентификатор : 1
    Формат : AC-3
    Формат/Информация : Audio Coding 3
    Расширение режима : CM (complete main)
    Параметр Endianness формата : Big
    Идентификатор кодека : 2000
    Продолжительность : 2 ч. 3 м.
    Вид битрейта : Постоянный
    Битрейт : 384 Кбит/сек
    Каналы : 6 каналов
    Расположение каналов : Front: L C R, Side: L R, LFE
    Частота : 48, 0 КГц
    Битовая глубина : 16 бит
    Метод сжатия : С потерями
    Размер потока : 340 Мбайт (16%)
    Выравнивание : Разделение по промежуткам
    Продолжительность промежутка : 42 мс. (1, 00 видеокадр)
    Время предзагрузки промежутка : 500 мс.

    Скриншоты:

    Скриншоты


    Онлайн видео Вудлон




    Размер скачиваемого торрента: 2.05 GB (2202169344 Bytes)

    Вудлон/Woodlawn (2015) HDRip | P | iTunes
    загрузка...
    Рейтинг →
     (голосов: 1, оценка 5/5, голосовать можно 1 раз )

    Другие торренты по теме:

  • Вудлон / Woodlawn (2015) BDRip | L2
  • Вудлон / Woodlawn (2015) BDRip 720p от AleksSin | L2
  • Вудлон / Woodlawn (2015) HDRip от AleksSin | L2
  • Вудлон / Woodlawn (2015) BDRip 1080p | P | iTunes
  • Вудлон / Woodlawn (2015) BDRip 720p от AleksSin | P | iTunes
  • Вудлон / Woodlawn (2015) BDRip-AVC от HELLYWOOD | iTunes


    • Комментарии (0):

      Информация

      Информация

        Посетители, находящиеся в группе Гости, не могут оставлять комментарии в данной новости.

        ↓ Меню



        ↓ Опрос

        А Вы добавили сайт в закладки?
        Да
        Не


        Top 10 за месяц (Фильмы)