.
Авторизация | Регистрация
Хочешь лучшие торренты? Добавь свой email!
Добавить
» » Особо опасны / Savages (2012) BDRip-AVC | D, A | Unrated Cut скачать торрент бесплатно




    Особо опасны / Savages (2012) BDRip-AVC | D, A | Unrated Cut скачать торрент бесплатно

    Опубликовал: Админ | Дата: 10-05-2016, 05:00 | Просмотров: 48



    Создали в: США/Relativity Media, Onda Entertainment, Ixtlan Corporation
    Категория жанра: Триллер, Драма, Криминал
    Главный режиссер: Оливер Стоун
    Актеры: Тейлор Китч, Блейк Лайвли, Аарон Тейлор-Джонсон, Джон Траволта, Бенисио Дель Торо, Сальма Хайек, Джонатан Карр, Демиан Бишир, Кандра Дочерти, Ши Уигхэм, Антонио Харамильо, Джоэль Мур, Яна Бенкер, Хоакин Косио, Нана Гана, Гари Стретч, Диего Катаньо, Каришма Ахлувалиа, Эмиль Хирш, Джэйк МакЛафлин, Энтони Кутоло

    Описание фильма
    Молодые миллионеры Бен и Чон ведут дела на побережье Калифорнии. Бен - выдающийся ботаник и талантливый бизнесмен, Чон - мастер возвращения долгов и борьбы с конкурентами. В их работе много сложных моментов, ведь они выращивают лучшую в мире траву. Особо серьезные проблемы решает знакомый агент ФБР. Но с одной не сможет помочь даже он. Сверхприбыльным бизнесом заинтересовался мексиканский картель. Его возглавляет прекрасная Елена, и она нашла главную слабость друзей - и Бен, и Чон принадлежат одной девушке. Ради прелестной О. они готовы на все. Любовь делает нас особо опасными.
    Время просмотра: 02: 21: 10
    Качество фильма видео: BDRip
    Перевод текста: Дублированный, авторский (одноголосый закадровый) x4
    Вид субтитров: Вшитые, отключаемые
    Язык субтитров: Русский (Forced, Full), Английский
    Информация о видео: MPEG-4 AVC/H.264, 3500 Kbps, 1024x426
    Информация о звуке 1: Русский AC3 5.1, 448 Kbps, 48.0 KHz (Дублированный) Blu-ray CEE
    Информация о звуке 2: Русский AC3 5.1, 448 Kbps, 48.0 KHz (Одноголосый закадровый) Ю. Сербин
    Информация о звуке 3: Русский AC3 5.1, 448 Kbps, 48.0 KHz (Одноголосый закадровый) А. Дасевич
    Информация о звуке 4: Русский AC3 5.1, 448 Kbps, 48.0 KHz (Одноголосый закадровый) А. Матвеев
    Информация о звуке 5: Русский AC3 5.1, 448 Kbps, 48.0 KHz (Одноголосый закадровый) А. Гаврилов
    Информация о звуке 6: Английский AC3 5.1, 448 Kbps, 48.0 KHz (Оригинал)
    MediaInfo
    code
    Общее
    Полное имя : Особо опасны.mkv
    Формат : Matroska
    Версия формата : Version 1
    Размер файла : 6, 11 Гбайт
    Продолжительность : 2 ч. 21 м.
    Общий поток : 6192 Кбит/сек
    Дата кодирования : UTC 2016-01-03 15: 03: 44
    Программа кодирования : mkvmerge v2.4.1 (;Use Me;) built on Dec 5 2008 18: 30: 05
    Библиотека кодирования : libebml v0.7.7 + libmatroska v0.8.1
    Видео
    Идентификатор : 1
    Формат : AVC
    Формат/Информация : Advanced Video Codec
    Профиль формата : High@L4.1
    Параметр CABAC формата : Да
    Параметр ReFrames формата : 10 кадров
    Идентификатор кодека : V_MPEG4/ISO/AVC
    Продолжительность : 2 ч. 21 м.
    Битрейт : 3500 Кбит/сек
    Ширина : 1024 пикселя
    Высота : 426 пикселей
    Соотношение сторон : 2, 40: 1
    Режим частоты кадров : Постоянный
    Частота кадров : 23, 976 (24000/1001) кадра/сек
    Цветовое пространство : YUV
    Субдискретизация насыщенности : 4: 2: 0
    Битовая глубина : 8 бит
    Тип развёртки : Прогрессивная
    Бит/(Пиксели*Кадры) : 0.335
    Размер потока : 3, 33 Гбайт (55%)
    Заголовок : Особо опасны (2012)
    Библиотека кодирования : x264 core 129 r2245 bc13772
    Настройки программы : cabac=1/ref=10/deblock=1: -3: -3/analyse=0x3: 0x133/me=umh/subme=10/psy=1/psy_rd=1.00: 0.10/mixed_ref=1/me_range=48/chroma_me=1/trellis=2/8x8dct=1/cqm=0/deadzone=21, 11/fast_pskip=0/chroma_qp_offset=-3/threads=6/lookahead_threads=1/sliced_threads=0/nr=0/decimate=1/interlaced=0/bluray_compat=0/constrained_intra=0/bframes=5/b_pyramid=2/b_adapt=2/b_bias=0/direct=3/weightb=1/open_gop=0/weightp=2/keyint=240/keyint_min=22/scenecut=40/intra_refresh=0/rc_lookahead=40/rc=2pass/mbtree=1/bitrate=3500/ratetol=1.0/qcomp=0.60/qpmin=10/qpmax=51/qpstep=4/cplxblur=20.0/qblur=0.5/ip_ratio=1.40/aq=1: 1.00
    Язык : English
    Default : Да
    Forced : Нет
    Аудио #1
    Идентификатор : 2
    Формат : AC-3
    Формат/Информация : Audio Coding 3
    Расширение режима : CM (complete main)
    Параметр Endianness формата : Big
    Идентификатор кодека : A_AC3
    Продолжительность : 2 ч. 21 м.
    Вид битрейта : Постоянный
    Битрейт : 448 Кбит/сек
    Каналы : 6 каналов
    Расположение каналов : Front: L C R, Side: L R, LFE
    Частота : 48, 0 КГц
    Частота кадров : 31, 250 кадров/сек (1536 spf)
    Метод сжатия : С потерями
    Размер потока : 452 Мбайт (7%)
    Заголовок : AC3 (Дублированный) Blu-ray CEE
    Язык : Russian
    Default : Да
    Forced : Нет
    Аудио #2
    Идентификатор : 3
    Формат : AC-3
    Формат/Информация : Audio Coding 3
    Расширение режима : CM (complete main)
    Параметр Endianness формата : Big
    Идентификатор кодека : A_AC3
    Продолжительность : 2 ч. 21 м.
    Вид битрейта : Постоянный
    Битрейт : 448 Кбит/сек
    Каналы : 6 каналов
    Расположение каналов : Front: L C R, Side: L R, LFE
    Частота : 48, 0 КГц
    Частота кадров : 31, 250 кадров/сек (1536 spf)
    Метод сжатия : С потерями
    Размер потока : 452 Мбайт (7%)
    Заголовок : AC3 (Одноголосый) Ю. Сербин
    Язык : Russian
    Default : Нет
    Forced : Нет
    Аудио #3
    Идентификатор : 4
    Формат : AC-3
    Формат/Информация : Audio Coding 3
    Расширение режима : CM (complete main)
    Параметр Endianness формата : Big
    Идентификатор кодека : A_AC3
    Продолжительность : 2 ч. 21 м.
    Вид битрейта : Постоянный
    Битрейт : 448 Кбит/сек
    Каналы : 6 каналов
    Расположение каналов : Front: L C R, Side: L R, LFE
    Частота : 48, 0 КГц
    Частота кадров : 31, 250 кадров/сек (1536 spf)
    Метод сжатия : С потерями
    Размер потока : 452 Мбайт (7%)
    Заголовок : AC3 (Одноголосый) А. Дасевич
    Язык : Russian
    Default : Нет
    Forced : Нет
    Аудио #4
    Идентификатор : 5
    Формат : AC-3
    Формат/Информация : Audio Coding 3
    Расширение режима : CM (complete main)
    Параметр Endianness формата : Big
    Идентификатор кодека : A_AC3
    Продолжительность : 2 ч. 21 м.
    Вид битрейта : Постоянный
    Битрейт : 448 Кбит/сек
    Каналы : 6 каналов
    Расположение каналов : Front: L C R, Side: L R, LFE
    Частота : 48, 0 КГц
    Частота кадров : 31, 250 кадров/сек (1536 spf)
    Метод сжатия : С потерями
    Размер потока : 452 Мбайт (7%)
    Заголовок : AC3 (Одноголосый) А. Матвеев
    Язык : Russian
    Default : Нет
    Forced : Нет
    Аудио #5
    Идентификатор : 6
    Формат : AC-3
    Формат/Информация : Audio Coding 3
    Расширение режима : CM (complete main)
    Параметр Endianness формата : Big
    Идентификатор кодека : A_AC3
    Продолжительность : 2 ч. 21 м.
    Вид битрейта : Постоянный
    Битрейт : 448 Кбит/сек
    Каналы : 6 каналов
    Расположение каналов : Front: L C R, Side: L R, LFE
    Частота : 48, 0 КГц
    Частота кадров : 31, 250 кадров/сек (1536 spf)
    Метод сжатия : С потерями
    Размер потока : 452 Мбайт (7%)
    Заголовок : AC3 (Одноголосый) А. Гаврилов
    Язык : Russian
    Default : Нет
    Forced : Нет
    Аудио #6
    Идентификатор : 7
    Формат : AC-3
    Формат/Информация : Audio Coding 3
    Расширение режима : CM (complete main)
    Параметр Endianness формата : Big
    Идентификатор кодека : A_AC3
    Продолжительность : 2 ч. 21 м.
    Вид битрейта : Постоянный
    Битрейт : 448 Кбит/сек
    Каналы : 6 каналов
    Расположение каналов : Front: L C R, Side: L R, LFE
    Частота : 48, 0 КГц
    Частота кадров : 31, 250 кадров/сек (1536 spf)
    Метод сжатия : С потерями
    Размер потока : 452 Мбайт (7%)
    Заголовок : AC3 (Оригинал)
    Язык : English
    Default : Нет
    Forced : Нет
    Текст #1
    Идентификатор : 8
    Формат : UTF-8
    Идентификатор кодека : S_TEXT/UTF8
    Идентификатор кодека/Информация : UTF-8 Plain Text
    Заголовок : Русские (Форсированные)
    Язык : Russian
    Default : Да
    Forced : Нет
    Текст #2
    Идентификатор : 9
    Формат : UTF-8
    Идентификатор кодека : S_TEXT/UTF8
    Идентификатор кодека/Информация : UTF-8 Plain Text
    Заголовок : Русские
    Язык : Russian
    Default : Нет
    Forced : Нет
    Текст #3
    Идентификатор : 10
    Формат : UTF-8
    Идентификатор кодека : S_TEXT/UTF8
    Идентификатор кодека/Информация : UTF-8 Plain Text
    Заголовок : Английские
    Язык : English
    Default : Нет
    Forced : Нет/code

    Дополнительная информация

    Фильм снят по мотивам романа Дона Уинслоу Особо опасны (Savages, 2010).
    Оливер Стоун написал роль бойфренда Магны для Тревора Донована после того как роль, на которую он изначально пробовался, была вырезана из сценария.
    Оливер Стоун приступил к работе над адаптацией сценария раньше, чем книга была опубликована. Он был настолько уверен в успехе, что сам способствовал инвестированию в проект.
    Первоначально на роль О была утверждена Дженнифер Лоуренс, но в последствии актриса отказалась от съёмок ради роли в Голодных играх.
    Ума Турман сыграла мать О Паку, но все сцены с её участием были вырезаны из-за временного ограничения фильма.
    Леонардо ДиКаприо, Том Харди, Гаррет Хедлунд и Джеймс Франко рассматривались на роль Бена.
    Хотя это уже шестой раз, когда Фернандо Лара и Оливер Стоун работали вместе, в этом фильме впервые Лара был упомянут в титрах.
    В рамках своей подготовки к фильму Тейлор Китч тренировался с настоящими Морскими котиками.
    Первоначально выход фильма был запланирован на осень, но после первого тестового показа для студии эту дату резко передвинули на июль.
    Оливер Стоун решил пригласить Тейлора Китча после просмотра отснятого материала фильма Морской бой (2012), который на тот момент был еще в стадии пост-продакшна.
    Оливер Стоун поручил Блейк Лайвли пройти курсы по огнестрельному оружию для ее роли. Несмотря на то, что у нее не было никакого опыта, она поразила мишень за первых три выстрела.
    Тейлор Китч исполнял трюки самостоятельно.
    По требованию закона все растения марихуаны в фильме являются искусственными. Для более точного воспроизведения растений дизайнеры посетили места их законного выращивания для медицины.
    Это первый фильм Оливера Стоуна за почти 17 лет, снятый при помощи анаморфотной оптики Panavision. После фильма Никсон (1995) его 2, 35: 1 фильмы были обрезаны с помощью съемки в Super 35. Оператор Дэниэл Миндел убедил его вернуться к анаморфированному формату. Миндел снимал все свои проекты (кроме Домино (2005)) в этом формате. Во время их первой встречи Дэниэл сказал Стоуну, что если тот планировал снимать в Super 35 или цифру, то он не подходит для такой работы.
    Джэйк МакЛафлин, сыгравший роль Дока, в реальной жизни является ветераном иракской войны.
    Фильм поставлялся в кинотеатры под названием Paqu.
    Смешной рингтон, который использует Ла Рейна, это основная тема одного из самых популярных шоу в истории мексиканского ТВ: Чаво с восьмого (1972-1992).
    Персонаж Елены отчасти основан на Мирее Морено Карреон, которая известна как первая в Мексике женщина, являющаяся лидером влиятельного наркокартеля.
    На роль Елены претендовали Мишель Родригес и Зои Салдана, но вместо них роль отошла Сальме Хайек.
    Камео режиссера Оливера Стоуна: когда героиня О пишет письмо своей матери, будучи похищенной, Оливер Стоун путешествует вместе с Блейк Лайвли по атласу мира.

    Скриншоты:

    Скриншоты


    Онлайн видео Особо опасны




    Размер скачиваемого торрента: 6.11 GB (6555645746 Bytes)

    Особо опасны/Savages (2012) BDRip-AVC | D, A | Unrated Cut
    загрузка...
    Рейтинг →
     (голосов: 1, оценка 3/5, голосовать можно 1 раз )

    Другие торренты по теме:

  • Особо опасны / Savages (2012) BDRip от HQ-ViDEO | Unrated Cut
  • Особо опасны / Savages (2012) BDRip-AVC от potroks | D | Unrated version
  • Особо опасны / Savages (2012) HDRip от Youtracker | КПК
  • Особо опасны / Savages (2012) HDRip от Youtracker | Расширенная версия
  • Особо опасны / Savages (2012) BDRip от ENGINEER | UNRATED
  • Особо опасны / Savages (2012) HDRip от Scarabey | Сербин | Расширенная версия
  • Особо опасны / Savages (2012) BDRip-AVC от ExKinoRay | A | Расширенная версия
  • Особо опасны (Расширенная версия) / Savages (Unrated version) / 2012 / ДБ / HDRip


    • Комментарии (0):

      Информация

      Информация

        Посетители, находящиеся в группе Гости, не могут оставлять комментарии в данной новости.

        ↓ Меню



        ↓ Опрос

        А Вы добавили сайт в закладки?
        Да
        Не


        Top 10 за месяц (Фильмы)