.
Авторизация | Регистрация
Хочешь лучшие торренты? Добавь свой email!
Добавить
» » Терминатор: Генезис / Terminator Genisys (2015) BDRip-AVC | D, P, A скачать торрент бесплатно




    Терминатор: Генезис / Terminator Genisys (2015) BDRip-AVC | D, P, A скачать торрент бесплатно

    Опубликовал: Админ | Дата: 10-05-2016, 05:00 | Просмотров: 50



    Создали в: США/Paramount Pictures, Skydance Productions
    Категория жанра: Фантастика, Боевик, Триллер
    Главный режиссер: Алан Тейлор
    Актеры: Арнольд Шварценеггер, Джейсон Кларк, Эмилия Кларк, Джай Кортни, Дж.К. Симмонс, Дайо Окенийи, Мэтт Смит, Кортни Б. Вэнс, Ли Бён Хон, Майкл Глэдис, Сандрин Холт, Уэйн Баструп, Грегори Алан Уильямс, Отто Санчес, Мэтти Ферраро, Грифф Ферст, Йен Этеридж, Афемо Омилами, Тери Уайбл, Керри Кехилл, Марк Адам

    Описание фильма
    Когда Джон Коннор, лидер сопротивления, посылает сержанта Кайла Риза назад в 1984 год, чтобы защитить Сару Коннор и спасти будущее, неожиданный поворот событий создает разлом во времени. Сержант Риз оказывается в новой, незнакомой версии прошлого, где он встречает неожиданных союзников, в том числе Терминатора, новых опасных врагов, и новую миссию: изменить будущее…
    Время просмотра: 02: 05: 43
    Качество фильма видео: BDRip-AVC
    Перевод текста: Дублированный, многоголосый закадровый, одноголосый закадровый
    Вид субтитров: Русский (Forced, Full), Английский
    Информация о видео: MPEG-4 AVC/H.264, 2300 Kbps, 1024x428
    Информация о звуке 1: Русский AC3 5.1, 448 Kbps, 48.0 KHz (Дублированный) Blu-ray CEE
    Информация о звуке 2: Русский AC3 5.1, 448 Kbps, 48.0 KHz (Многоголосый закадровый) Омикрон
    Информация о звуке 3: Русский AC3 5.1, 448 Kbps, 48.0 KHz (Одноголосый закадровый) А. Гаврилов
    Информация о звуке 4: Русский AC3 5.1, 448 Kbps, 48.0 KHz (Одноголосый закадровый) Л. Володарский
    Информация о звуке 5: Русский AC3 5.1, 448 Kbps, 48.0 KHz (Одноголосый закадровый) Д. Есарев
    Информация о звуке 6: Английский AC3 5.1, 448 Kbps, 48.0 KHz (Оригинал)
    MediaInfo

    Общее
    Полное имя : Терминатор. Генезис.mkv
    Формат : Matroska
    Версия формата : Version 1
    Размер файла : 4, 38 Гбайт
    Продолжительность : 2 ч. 5 м.
    Общий поток : 4989 Кбит/сек
    Дата кодирования : UTC 2015-11-30 19: 11: 15
    Программа кодирования : mkvmerge v2.4.1 (;Use Me;) built on Dec 5 2008 18: 30: 05
    Библиотека кодирования : libebml v0.7.7 + libmatroska v0.8.1
    Видео
    Идентификатор : 1
    Формат : AVC
    Формат/Информация : Advanced Video Codec
    Профиль формата : High@L4.1
    Параметр CABAC формата : Да
    Параметр ReFrames формата : 10 кадров
    Идентификатор кодека : V_MPEG4/ISO/AVC
    Продолжительность : 2 ч. 5 м.
    Битрейт : 2300 Кбит/сек
    Ширина : 1024 пикселя
    Высота : 428 пикселей
    Соотношение сторон : 2, 40: 1
    Режим частоты кадров : Постоянный
    Частота кадров : 23, 976 кадра/сек
    Цветовое пространство : YUV
    Субдискретизация насыщенности : 4: 2: 0
    Битовая глубина : 8 бит
    Тип развёртки : Прогрессивная
    Бит/(Пиксели*Кадры) : 0.219
    Размер потока : 1, 93 Гбайт (44%)
    Заголовок : Терминатор: Генезис (2015)
    Библиотека кодирования : x264 core 146 r2538 121396c
    Настройки программы : cabac=1/ref=10/deblock=1: -3: -3/analyse=0x3: 0x133/me=umh/subme=10/psy=1/psy_rd=1.00: 0.10/mixed_ref=1/me_range=48/chroma_me=1/trellis=2/8x8dct=1/cqm=0/deadzone=21, 11/fast_pskip=0/chroma_qp_offset=-3/threads=6/lookahead_threads=1/sliced_threads=0/nr=0/decimate=1/interlaced=0/bluray_compat=0/constrained_intra=0/bframes=5/b_pyramid=2/b_adapt=2/b_bias=0/direct=3/weightb=1/open_gop=0/weightp=2/keyint=240/keyint_min=22/scenecut=40/intra_refresh=0/rc_lookahead=40/rc=2pass/mbtree=1/bitrate=2300/ratetol=1.0/qcomp=0.60/qpmin=10/qpmax=51/qpstep=4/cplxblur=20.0/qblur=0.5/ip_ratio=1.40/aq=1: 1.00
    Язык : English
    Default : Да
    Forced : Нет
    Аудио #1
    Идентификатор : 2
    Формат : AC-3
    Формат/Информация : Audio Coding 3
    Расширение режима : CM (complete main)
    Параметр Endianness формата : Big
    Идентификатор кодека : A_AC3
    Продолжительность : 2 ч. 5 м.
    Вид битрейта : Постоянный
    Битрейт : 448 Кбит/сек
    Каналы : 6 каналов
    Расположение каналов : Front: L C R, Side: L R, LFE
    Частота : 48, 0 КГц
    Метод сжатия : С потерями
    Размер потока : 403 Мбайт (9%)
    Заголовок : AC3 (Дублированный) Blu-ray CEE
    Язык : Russian
    Default : Да
    Forced : Нет
    Аудио #2
    Идентификатор : 3
    Формат : AC-3
    Формат/Информация : Audio Coding 3
    Расширение режима : CM (complete main)
    Параметр Endianness формата : Big
    Идентификатор кодека : A_AC3
    Продолжительность : 2 ч. 5 м.
    Вид битрейта : Постоянный
    Битрейт : 448 Кбит/сек
    Каналы : 6 каналов
    Расположение каналов : Front: L C R, Side: L R, LFE
    Частота : 48, 0 КГц
    Метод сжатия : С потерями
    Размер потока : 403 Мбайт (9%)
    Заголовок : AC3 (Многоголосый) Омикрон
    Язык : Russian
    Default : Нет
    Forced : Нет
    Аудио #3
    Идентификатор : 4
    Формат : AC-3
    Формат/Информация : Audio Coding 3
    Расширение режима : CM (complete main)
    Параметр Endianness формата : Big
    Идентификатор кодека : A_AC3
    Продолжительность : 2 ч. 5 м.
    Вид битрейта : Постоянный
    Битрейт : 448 Кбит/сек
    Каналы : 6 каналов
    Расположение каналов : Front: L C R, Side: L R, LFE
    Частота : 48, 0 КГц
    Метод сжатия : С потерями
    Размер потока : 403 Мбайт (9%)
    Заголовок : AC3 (Одноголосый) А. Гаврилов
    Язык : Russian
    Default : Нет
    Forced : Нет
    Аудио #4
    Идентификатор : 5
    Формат : AC-3
    Формат/Информация : Audio Coding 3
    Расширение режима : CM (complete main)
    Параметр Endianness формата : Big
    Идентификатор кодека : A_AC3
    Продолжительность : 2 ч. 5 м.
    Вид битрейта : Постоянный
    Битрейт : 448 Кбит/сек
    Каналы : 6 каналов
    Расположение каналов : Front: L C R, Side: L R, LFE
    Частота : 48, 0 КГц
    Метод сжатия : С потерями
    Размер потока : 403 Мбайт (9%)
    Заголовок : AC3 (Одноголосый) Л. Володарский
    Язык : Russian
    Default : Нет
    Forced : Нет
    Аудио #5
    Идентификатор : 6
    Формат : AC-3
    Формат/Информация : Audio Coding 3
    Расширение режима : CM (complete main)
    Параметр Endianness формата : Big
    Идентификатор кодека : A_AC3
    Продолжительность : 2 ч. 5 м.
    Вид битрейта : Постоянный
    Битрейт : 448 Кбит/сек
    Каналы : 6 каналов
    Расположение каналов : Front: L C R, Side: L R, LFE
    Частота : 48, 0 КГц
    Метод сжатия : С потерями
    Размер потока : 403 Мбайт (9%)
    Заголовок : AC3 (Одноголосый) Д. Есарев
    Язык : Russian
    Default : Нет
    Forced : Нет
    Аудио #6
    Идентификатор : 7
    Формат : AC-3
    Формат/Информация : Audio Coding 3
    Расширение режима : CM (complete main)
    Параметр Endianness формата : Big
    Идентификатор кодека : A_AC3
    Продолжительность : 2 ч. 5 м.
    Вид битрейта : Постоянный
    Битрейт : 448 Кбит/сек
    Каналы : 6 каналов
    Расположение каналов : Front: L C R, Side: L R, LFE
    Частота : 48, 0 КГц
    Метод сжатия : С потерями
    Размер потока : 403 Мбайт (9%)
    Заголовок : AC3 (Оригинал)
    Язык : English
    Default : Нет
    Forced : Нет
    Текст #1
    Идентификатор : 8
    Формат : UTF-8
    Идентификатор кодека : S_TEXT/UTF8
    Идентификатор кодека/Информация : UTF-8 Plain Text
    Заголовок : Русские (Форсированные)
    Язык : Russian
    Default : Да
    Forced : Нет
    Текст #2
    Идентификатор : 9
    Формат : UTF-8
    Идентификатор кодека : S_TEXT/UTF8
    Идентификатор кодека/Информация : UTF-8 Plain Text
    Заголовок : Русские
    Язык : Russian
    Default : Нет
    Forced : Нет
    Текст #3
    Идентификатор : 10
    Формат : UTF-8
    Идентификатор кодека : S_TEXT/UTF8
    Идентификатор кодека/Информация : UTF-8 Plain Text
    Заголовок : Английские
    Язык : English
    Default : Нет
    Forced : Нет/code

    Дополнительная информация

    Сценарист Лаэта Калогридис рассказала, что одним из источников вдохновения при написании сценария был фильм Назад в будущее 2 (1989). Сама Калогридис и Патрик Люссье трижды отказывались от предложения написать сценарий к этому фильму, поскольку им не нравился сюжет третьей и четвертой частей франшизы, и согласились они лишь после личной беседы с Джеймсом Кэмероном.
    Создатели фильма рассматривали в качестве претендентов на роль Дэнни Дайсона актеров Джона Бойегу и Дайо Окенийи. Первый в итоге отклонил предложение сам ради участия в седьмом эпизоде Звездных войн, и роль Дайсона досталась Окенийи.
    В трейлере фильма звучит песня Jetta I’d Love to Change the World.
    Эмилия Кларк стала второй актрисой из сериала Игра престолов (2011), исполнившей роль Сары Коннор. Несколько лет назад мать спасителя человечества играла Лина Хиди в сериале Терминатор: Битва за будущее (2008-2009).
    Режиссером фильма могли стать Джастин Лин, Энг Ли, Бретт Рэтнер, Райан Джонсон и Дени Вильнёв.
    Джай Кортни мог выбыть из актерского состава фильма, так как съемочный график совпадал с производством сиквела фильма Дивергент (2014). Но контракт был составлен таким образом, чтобы он смог сняться в обоих фильмах.
    Рабочее название фильма — Vista, что является отсылкой к известной фразе Hasta la vista, baby.
    Первоначально на роль Джона Коннора рассматривали кандидатуру Тома Харди.
    Прежде чем Джай Кортни получил роль в этом фильме, на его место рассматривались Бойд Холбрук, Тейлор Китч, Николас Холт, Зак Эфрон, Уилсон Бетел, Сэм Рид, Томас Кокерел и Гаррет Хедлунд.
    Кроме Эмилии Кларк, на роль Сары Коннор рассматривались Бри Ларсон и Марго Робби.
    Тело молодого Арнольда Шварценеггера в фильме сыграл актер и бодибилдер Бретт Азар.
    Это первый фильм франшизы, снятый на цифровую камеру и с анаморфным объективом.
    Роберт Патрик отклонил предложение вновь сыграть терминатора из жидкого металла Т-1000, поскольку сомневался, что в силу проблем со здоровьем физически справится с ролью.
    Кристиан Бэйл не смог найти время в графике, чтобы вновь сыграть Джона Коннора — роль, доставшуюся ему в фильме Терминатор: Да придет спаситель (2009).
    Исполнительный продюсер Дэвид Эллисон неслучайно знаком со сферой компьютерных технологий. Его отец — Ларри Эллисон, основатель Oracle, одной из крупнейших в мире IT-корпораций. А самая соль в том, что съемки сцен Кибердайн Системс проходили именно в головном корпусе софтверного гиганта в Редвуд-Шорс. Примечательно также, что и в жизни, и по сюжету этот центр находится в пределах Сан-Франциско.
    Студия Paramount получила добро на два сиквела к этому фильму еще до его выхода, однако независимо от того, насколько хорошими или плохими будут кассовые сборы этих фильмов, все права на франшизу вернутся к Джеймсу Кэмерону в 2019 году.
    В процессе создания фильма художник по костюмам Сьюзэн Мэтисон столкнулась с проблемой в поиске новых кроссовок Nike Vandal, которые Кайл Риз носил в 1984 году. Все, что ей удавалось найти, — поношенные образцы. На протяжении нескольких месяцев она обращалась в фирму Nike с просьбой изготовить для съемок эту конкретную модель, но компания Nike хотела, чтобы она придумала дизайн кроссовок на базе их модели Air-Force. Мэтисон отказалась, поскольку не хотела чувствовать себя виноватой перед поклонниками первой части франшизы, которые могли бы заметить, что модель кроссовок другая. И только после вмешательства студии Paramount фирма Nike согласилась специально для этого фильма изготовить 25 пар кроссовок Vandal.
    Меган Эллисон приобрела права на франшизу в июне 2011 года за 20 миллионов долларов, обойдя студию Lionsgate, которая предлагала 15 миллионов долларов. В 2014 году, решив сконцентрироваться на продюсировании фильмов в стиле артхаус на ее лейбле Annapurna, она передала права на франшизу своему брату Дэвиду Эллисону. Владевшие ранее правами Виктор Кубичек и Дерек Андерсон были вынуждены от них отказаться из-за долгов у их компании Halycon, повлекших за собой расследование ФБР, в результате которого был выявлен факт мошенничества с хедж-фондом во время финансирования фильма Терминатор: Да придет спаситель (2009).
    Адриану Джеймсу предлагали роль в этом фильме, но он отказался из-за несогласованности рабочих графиков.
    В сцене, где Терминатор изучает новый тип боеприпасов, он говорит, что читал о них на gunsandammo.com. При подготовке к съемкам первой части франшизы Арнольд Шварценеггер проходил недельный курс по обращению с оружием и в результате получил комплимент от журнала Soldier of Fortune, отметившего реалистичность, с которой актер управлялся с оружием в фильме.
    Кристанна Локен рассматривалась на роль Т-Х.
    Песня, которую Сара Коннор слушает на кассетном проигрывателе, — это I Wanna Be Sedated группы The Ramones.
    Это первый фильм франшизы, в котором в анимации терминаторов не принял участие Стэн Уинстон — мастер спецэффектов и близкий друг Арнольда Шварценеггера, ушедший из жизни в 2008 году. За спецэффекты в новом фильме отвечает команда Legacy Effect, созданная бывшими подмастерьями Уинстона.
    Когда Сара и Кайл высаживаются в 2017 году в Сан-Франциско, играет отрывок из песни Love runs out группы One Republic.
    Возраст Арнольда Шварценеггера было решено не скрывать CGI-эффектами. Вместо этого сценаристы решили объяснить, что живая ткань, которой покрыт Терминатор, может стареть, а волосы робота — седеть. Эту идею авторам фильма подсказал Джеймс Кэмерон.

    Скриншоты:

    Скриншоты


    Онлайн видео Терминатор: Генезис




    Размер скачиваемого торрента: 4.38 GB (4704235412 Bytes)

    Терминатор: Генезис/Terminator Genisys (2015) BDRip-AVC | D, P, A
    загрузка...
    Рейтинг →
     (голосов: 1, оценка 3/5, голосовать можно 1 раз )

    Другие торренты по теме:

  • Терминатор: Генезис / Terminator: Genisys (2015) DCPrip | 2K, Hi10P | Трейлеры
  • Терминатор: Генезис (2015) HDRip
  • Терминатор: Генезис / Terminator: Genisys (2015) WEBRip 1080p | Трейлер
  • Терминатор: Генезис / Terminator: Genisys (2015) WEBRip 1080p | Фрагменты
  • Терминатор: Генезис / Terminator: Genisys (2015) WEBRip 1080p | Фрагменты
  • OST - Терминатор: Генезис / Terminator: Genisys (2015) FLAC
  • Терминатор: Генезис / Terminator: Genisys (2015) CAMRip
  • Терминатор: Генезис / Terminator: Genisys (2015) CAMRip


    • Комментарии (0):

      Информация

      Информация

        Посетители, находящиеся в группе Гости, не могут оставлять комментарии в данной новости.

        ↓ Меню



        ↓ Опрос

        А Вы добавили сайт в закладки?
        Да
        Не


        Top 10 за месяц (Фильмы)