.
Авторизация | Регистрация
Хочешь лучшие торренты? Добавь свой email!
Добавить
» » Физрук (2014-2016) SATRip от New-Team скачать торрент бесплатно




    Физрук (2014-2016) SATRip от New-Team скачать торрент бесплатно

    Опубликовал: Админ | Дата: 8-05-2016, 05:00 | Просмотров: 34



    Снималось в: Россия/Гуд Стори Медиа, MFmedia
    Категория жанра: комедия
    Создали в: 2014-2016
    Время просмотра: 00: 24: 00/серия
    Перевод текста: Не требуется
    Субтитры подготовлены: нет
    Оригинальная аудиодорожка: русский
    Главный режиссер: Сергей Сенцов, Фёдор Стуков, Дмитрий Губарев

    Актеры
    Дмитрий Нагиев, Александр Гордон, Полина Гренц, Анастасия Панина, Владимир Сычев, Даниил Вахрушев, Андрей Крыжний, Артур Сопельник, Оксана Сидоренко, Карина Мишулина...
    Описание: Это история о столкновении двух времен: лихих 90-х и стабильных десятых. Главный герой Фома всю жизнь был правой рукой влиятельного человека с полукриминальным прошлым. Когда хозяин выгнал его на пенсию, Фома решил любым способом вернуться обратно. Сначала казалось, что все будет просто: подобраться к ребенку бывшего босса, прогнуться, напомнить о себе и вернуться в дело. Но план Фомы рушится в первый же день. В школе ему приходится задержаться надолго. Попав в абсолютно незнакомый мир детей и учителей, который кардинально отличается от привычного ему круга, Фома не только меняет свою жизнь, но и меняется сам.

    Качество фильма: SATRip / DVBот Doc66, Alexey724
    Тип видео: AVI
    Информация о видео: 720x400 (16: 9), 25.000 fps, XviD ~ 1800 kbps avg, 0.250 bit/pixel
    Информация о звуке: 48 kHz, Dolby AC3, 2 ch, 128 kbps
    Дополнительно: Решил сделать этот релиз, поскольку вэбки, представленные в сети, пока оставляют желать лучшего. Жаль, что звук в исходниках так себе, поэтому и битрейт 128 Кбпс.
    Раздача от:
    Внимание! Раздача ведётся путём добавления новых серий

    Внимание! Раздача ведётся путём добавления новых серий
    При каждом добавлении создаётся новый торрент. Чтобы начать докачку новой серии, пользователям необходимо сделать следующее:
    1) остановить скачивание,
    2) удалить старый торрент у себя из клиента (старые серии удалять не надо),
    3) скачать новый торрент и запустить его у себя в клиенте вместо старого, при этом указать клиенту путь в старую папку куда и должно происходить скачивание новых серий.
    Ваш клиент при этом должен произвести хеширование (проверку) старой папки (если не производит сам - помогите ему сделать это), и будет докачивать только те серии которых у вас ещё нет. Старые серии при этом не удаляются, а продолжают раздаваться!
    Eсли вы уже удалили старые серии, то предотвратить повторную закачку старых серий можно, отжав галочку в соответствующих местах при запуске нового торрента.

    MediaInfo

    General
    Format : AVI
    Format/Info : Audio Video Interleave
    File size : 358 MiB
    Duration : 25mn 51s
    Overall bit rate : 1 938 Kbps
    Writing application : VirtualDubMod 1.5.10.3 | www.virtualdub-fr.org || (build 2550/release)
    Writing library : VirtualDubMod build 2550/release
    Video
    ID : 0
    Format : MPEG-4 Visual
    Format profile : Advanced Simple@L5
    Format settings, BVOP : 1
    Format settings, QPel : No
    Format settings, GMC : No warppoints
    Format settings, Matrix : Custom
    Codec ID : XVID
    Codec ID/Hint : XviD
    Duration : 25mn 51s
    Bit rate : 1 800 Kbps
    Width : 720 pixels
    Height : 400 pixels
    Display aspect ratio : 16: 9
    Frame rate : 25.000 fps
    Color space : YUV
    Chroma subsampling : 4: 2: 0
    Bit depth : 8 bits
    Scan type : Progressive
    Compression mode : Lossy
    Bits/(Pixel*Frame) : 0.250
    Stream size : 333 MiB (93%)
    Writing library : XviD 73
    Audio
    ID : 1
    Format : AC-3
    Format/Info : Audio Coding 3
    Mode extension : CM (complete main)
    Format settings, Endianness : Big
    Codec ID : 2000
    Duration : 25mn 51s
    Bit rate mode : Constant
    Bit rate : 128 Kbps
    Channel(s) : 2 channels
    Channel positions : Front: L R
    Sampling rate : 48.0 KHz
    Frame rate : 31.250 fps (1536 spf)
    Compression mode : Lossy
    Stream size : 23.7 MiB (7%)
    Alignment : Split accross interleaves
    Interleave, duration : 40 ms (1.00 video frame)
    Interleave, preload duratio : 500 ms

    Скриншоты:



    Сравнение:

    На всякий случай сравнение с самой популярной раздачей на Руторе: http://tor-ru.net/torrent/496895/
    Сравнение видео: http://screenshotcomparison.com/comparison/171669
    Вот сравнение с релизом Files-x: http://tor-ru.net/torrent/501742
    http://screenshotcomparison.com/comparison/171767ощутите разницу)

    Добавлена 59 серия
    Размер скачиваемого торрента: 18.51 GB (19875604480 Bytes)

    Физрук (2014-2016) SATRip от New-Team
    загрузка...
    Рейтинг →
     (голосов: 1, оценка 4/5, голосовать можно 1 раз )

    Другие торренты по теме:

  • Физрук (2014) SATRip скачать через торрент бесплатно
  • Физрук (2014) SATRip скачать через торрент бесплатно
  • Физрук (2016) SATRip-AVC от ExKinoRay
  • Физрук (2016) SATRip от Files-x
  • Физрук (2016) SATRip-AVC от Files-x
  • Физрук (2016) SATRip
  • Физрук (2016) SATRip-AVC от Vovan366
  • Физрук (2016) SATRip от GeneralFilm


    • Комментарии (0):

      Информация

      Информация

        Посетители, находящиеся в группе Гости, не могут оставлять комментарии в данной новости.

        ↓ Меню



        ↓ Опрос

        А Вы добавили сайт в закладки?
        Да
        Не


        Top 10 за месяц (Фильмы)