.
Авторизация | Регистрация
Хочешь лучшие торренты? Добавь свой email!
Добавить
» » Мустанг / Mustang (2015) HDRip от MegaPeer | iTunes скачать торрент бесплатно




    Мустанг / Mustang (2015) HDRip от MegaPeer | iTunes скачать торрент бесплатно

    Опубликовал: Админ | Дата: 3-05-2016, 05:00 | Просмотров: 83



    Детально о кино
    Русское название: Мустанг
    Русское название в мировом прокате: Mustang
    Создали в: 2015
    Категория жанра: драма
    Главный режиссер: Дениз Гамзе Эргювен/Deniz Gamze Ergven

    Актеры
    Гюнеш Шенсой, Дога Зейнеп Догуслу, Элит Ишчан, Тугба Сунгуроглу, Илаида Акдоган, Нихал Г. Колдаш, Айберк Пекджан, Бахар Керимоглу, Бурак Йийит, Эрол Афсин

    Сюжет фильма

    В деревне на севере Турции пятеро сестер-подростков возвращаются из школы, беззаботно резвясь с мальчишками. Консервативные воспитатели считают эти невинные игры непозволительными и всерьез берутся за воспитание девушек. Жизнь юных сестер круто меняется: дом становится тюрьмой, школу заменяют уроки домашнего хозяйства, начинаются приготовления к принудительным свадьбам. Но жизнелюбивые девушки не собираются мириться с традициями, ограничивающими их свободу.

    Снималось в: Турция, Франция, Катар, Германия
    Киностудия: CG Cinma, Vistamar Filmproduktion, Uhlandfilm
    Время просмотра: 01: 37: 03
    Перевод текста: Профессиональный (многоголосый закадровый) | iTunes
    Файл
    Тип видео: AVI
    Качество фильма: HDRip
    Информация о видео: XviD, 720x304, 24 fps, 1753 kbps
    Информация о звуке: AC3, 6 ch, 384 Kbps
    Релиз:
    Скриншоты

    MediaInfo:
    Общее
    Полное имя : Mustang.2015.HDRip.1450MB.MegaPeer.avi
    Формат : AVI
    Формат/Информация : Audio Video Interleave
    Размер файла : 1, 45 Гбайт
    Продолжительность : 1 ч. 37 м.
    Общий поток : 2147 Кбит/сек
    Программа кодирования : VirtualDubMod 1.5.10.3 | www.virtualdub-fr.org || (build 2550/release)
    Библиотека кодирования : VirtualDubMod build 2550/release
    Видео
    Идентификатор : 0
    Формат : MPEG-4 Visual
    Профиль формата : Advanced Simple@L5
    Параметр BVOP формата : 1
    Параметр QPel формата : Нет
    Параметр GMC формата : Без точки перехода
    Параметр матрицы формата : Выборочная
    Идентификатор кодека : XVID
    Идентификатор кодека/Подсказка : XviD
    Продолжительность : 1 ч. 37 м.
    Битрейт : 1753 Кбит/сек
    Ширина : 720 пикселей
    Высота : 304 пикселя
    Соотношение сторон : 2, 35: 1
    Частота кадров : 24, 000 кадра/сек
    Цветовое пространство : YUV
    Субдискретизация насыщенности : 4: 2: 0
    Битовая глубина : 8 бит
    Тип развёртки : Прогрессивная
    Метод сжатия : С потерями
    Бит/(Пиксели*Кадры) : 0.334
    Размер потока : 1, 19 Гбайт (82%)
    Библиотека кодирования : XviD 73
    Аудио
    Идентификатор : 1
    Формат : AC-3
    Формат/Информация : Audio Coding 3
    Расширение режима : CM (complete main)
    Параметр Endianness формата : Big
    Идентификатор кодека : 2000
    Продолжительность : 1 ч. 37 м.
    Вид битрейта : Постоянный
    Битрейт : 384 Кбит/сек
    Каналы : 6 каналов
    Расположение каналов : Front: L C R, Side: L R, LFE
    Частота : 48, 0 КГц
    Частота кадров : 31, 250 кадров/сек (1536 spf)
    Метод сжатия : С потерями
    Размер потока : 267 Мбайт (18%)
    Выравнивание : Разделение по промежуткам
    Продолжительность промежутка : 42 мс. (1, 00 видеокадр)
    Время предзагрузки промежутка : 500 мс.


    Онлайн видео Мустанг


    Размер скачиваемого торрента: 1.45 GB (1562294272 Bytes)

    Мустанг/Mustang (2015) HDRip от MegaPeer | iTunes
    загрузка...
    Рейтинг →
     (голосов: 1, оценка 5/5, голосовать можно 1 раз )

    Другие торренты по теме:

  • Мустанг / Mustang (2015) WEB-DL 1080p | iTunes
  • Мустанг / Mustang (2015) BDRip-AVC от NNNB | iTunes


    • Комментарии (0):

      Информация

      Информация

        Посетители, находящиеся в группе Гости, не могут оставлять комментарии в данной новости.

        ↓ Меню



        ↓ Опрос

        А Вы добавили сайт в закладки?
        Да
        Не


        Top 10 за месяц (Фильмы)