.
Авторизация | Регистрация
Хочешь лучшие торренты? Добавь свой email!
Добавить
» » Вернувшиеся / Les revenants (2004) BDRip от MegaPeer | P скачать торрент бесплатно




    Вернувшиеся / Les revenants (2004) BDRip от MegaPeer | P скачать торрент бесплатно

    Опубликовал: Админ | Дата: 2-05-2016, 05:00 | Просмотров: 82



    Детально о кино
    Русское название: Вернувшиеся
    Русское название в мировом прокате: Les revenants
    Создали в: 2004
    Категория жанра: Фэнтези, драма
    Главный режиссер: Робан Кампийо

    Актеры
    Жеральдин Пайя, Жонатан Заккаи, Фредерик Пьеро, Виктор Гарривье, Катрин Сами, Джамел Барек, Мари Матерон, Гай Херберт, Катрин Сальвини

    Сюжет фильма

    Жизнь в небольшом французском городке кардинально меняется после того, как тысячи недавно умерших возвращаются из могил к своим родным и на рабочие места. Мертвые не агрессивны, немного замедлены, но они ведут себя как люди, и живой части человечества надо найти решение этой проблемы. А мертвые чего-то ждут.

    Снималось в: Франция
    Киностудия: Canal+ fr, Centre National de la Cin?matographie (CNC), France 3 Cin?ma, Gimages 6, Gimages D?veloppement
    Время просмотра: 01: 41: 53
    Перевод текста: Профессиональный многоголосый ( Омикрон)
    Файл
    Тип видео: AVI
    Качество фильма: BDRip
    Информация о видео: XviD, 688x288, 25 fps, 883 kbps
    Информация о звуке: MP3, 2 ch, ~128 kbps
    Релиз:
    Скриншоты

    MediaInfo:
    Общее
    Полное имя : Les.revenants.2004.BDRip.745MB.MegaPeer.avi
    Формат : AVI
    Формат/Информация : Audio Video Interleave
    Размер файла : 744 Мбайт
    Продолжительность : 1 ч. 41 м.
    Общий поток : 1022 Кбит/сек
    Программа кодирования : VirtualDubMod 1.5.10.3 | www.virtualdub-fr.org || (build 2550/release)
    Библиотека кодирования : VirtualDubMod build 2550/release
    Видео
    Идентификатор : 0
    Формат : MPEG-4 Visual
    Профиль формата : Advanced Simple@L5
    Параметр BVOP формата : 1
    Параметр QPel формата : Нет
    Параметр GMC формата : Без точки перехода
    Параметр матрицы формата : Выборочная
    Идентификатор кодека : XVID
    Идентификатор кодека/Подсказка : XviD
    Продолжительность : 1 ч. 41 м.
    Битрейт : 884 Кбит/сек
    Ширина : 688 пикселей
    Высота : 288 пикселей
    Соотношение сторон : 2, 40: 1
    Частота кадров : 25, 000 кадров/сек
    Цветовое пространство : YUV
    Субдискретизация насыщенности : 4: 2: 0
    Битовая глубина : 8 бит
    Тип развёртки : Прогрессивная
    Метод сжатия : С потерями
    Бит/(Пиксели*Кадры) : 0.178
    Размер потока : 644 Мбайт (87%)
    Библиотека кодирования : XviD 73
    Аудио
    Идентификатор : 1
    Формат : MPEG Audio
    Версия формата : Version 1
    Профиль формата : Layer 3
    Идентификатор кодека : 55
    Идентификатор кодека/Подсказка : MP3
    Продолжительность : 1 ч. 41 м.
    Вид битрейта : Постоянный
    Битрейт : 128 Кбит/сек
    Каналы : 2 канала
    Частота : 48, 0 КГц
    Метод сжатия : С потерями
    Размер потока : 93, 3 Мбайт (13%)
    Выравнивание : Соединение по промежуткам
    Продолжительность промежутка : 40 мс. (1, 00 видеокадр)
    Время предзагрузки промежутка : 504 мс.
    Библиотека кодирования : LAME3.99r
    Настройки программы : -m s -V 4 -q 2 -lowpass 17 -b 128


    Онлайн видео Вернувшиеся


    Размер скачиваемого торрента: 744.50 MB (780662784 Bytes)

    Вернувшиеся/Les revenants (2004) BDRip от MegaPeer | P
    загрузка...
    Рейтинг →
     (голосов: 1, оценка 4/5, голосовать можно 1 раз )

    Другие торренты по теме:

  • Вернувшиеся / Les revenants / They Came Back (2004) DVD9 скачать через торрент бесплатно


    • Комментарии (0):

      Информация

      Информация

        Посетители, находящиеся в группе Гости, не могут оставлять комментарии в данной новости.

        ↓ Меню



        ↓ Опрос

        А Вы добавили сайт в закладки?
        Да
        Не


        Top 10 за месяц (Фильмы)