.
Авторизация | Регистрация
Хочешь лучшие торренты? Добавь свой email!
Добавить
» » Дурак (2014) HDRip от MegaPeer | iTunes скачать торрент бесплатно




    Дурак (2014) HDRip от MegaPeer | iTunes скачать торрент бесплатно

    Опубликовал: Админ | Дата: 1-05-2016, 20:41 | Просмотров: 71



    Детально о кино
    Русское название: Дурак
    Создали в: 2014
    Категория жанра: Драма
    Главный режиссер: Юрий Быков

    Актеры
    Артём Быстров, Наталья Суркова, Юрий Цурило, Борис Невзоров, Кирилл Полухин, Роман Майоров, Иван Брэд, Александр Коршунов, Ольга Самошина, Дарья Мороз

    Сюжет фильма

    Никита — молодой парень, работающий сантехником и являющийся одним из лучших специалистов в городе. Однажды его вызывают в общежитие, расположенное на окраине города, в котором произошла авария. Приехав на место, он обнаруживает, что по всему зданию пошла трещина, а это значит, что дом может рухнуть в любую минуту. Понимая, что провести эвакуацию и переселение жильцов, численность которых достигает 800 человек, невозможно без согласования сверху, Никита решает сделать все возможное, чтобы достучаться до чиновников. Однако сделать это оказывается очень непросто, поскольку верхушка города очень глубоко погрязла в коррупции и не желает ничего предпринимать. Но парень не собирается отступать, даже когда его жизни начинает угрожать опасность...

    Снималось в: Россия
    Киностудия: Rock Film Studio
    Время просмотра: 02: 00: 52
    Перевод текста: Не требуется (русский)
    Файл
    Тип видео: AVI
    Качество фильма: HDRip
    Информация о видео: XviD, 720x304, 24 fps, 1329 kbps
    Информация о звуке: AC3, 6 ch, ~384 kbps | iTunes
    Релиз:
    Скриншоты
    Интересно
    Фильм посвящен памяти режиссера Алексея Балабанова.
    Съёмки фильма проходили в Туле и Москве. Для съёмок разрушающегося здания было найдено реальное общежитие на окраине Тулы. Трещины, ползущие по стене, были созданы художниками. Декорация имеет размер восемь метров в ширину и три в высоту, а остальная часть была дорисована компьютером. Внутри помещений на четырёх этажах трещины были настоящими, их, по согласию жильцов, сделала съёмочная группа (после окончания съёмок за счёт создателей картины был сделан небольшой ремонт). Семейные сцены в доме Никитина снимались в обычной московской квартире в Кузьминках. Во время съёмок хозяева квартиры находились в соседней комнате.
    MediaInfo:
    Общее
    Полное имя : The.Fool.2014.HDRip.1450MB.AC3.6.ch.MegaPeer.avi
    Формат : AVI
    Формат/Информация : Audio Video Interleave
    Размер файла : 1, 45 Гбайт
    Продолжительность : 2 ч. 0 м.
    Общий поток : 1722 Кбит/сек
    Программа кодирования : VirtualDubMod 1.5.10.3 | www.virtualdub-fr.org || (build 2550/release)
    Библиотека кодирования : VirtualDubMod build 2550/release
    Видео
    Идентификатор : 0
    Формат : MPEG-4 Visual
    Профиль формата : Advanced Simple@L5
    Параметр BVOP формата : 1
    Параметр QPel формата : Нет
    Параметр GMC формата : Без точки перехода
    Параметр матрицы формата : Выборочная
    Идентификатор кодека : XVID
    Идентификатор кодека/Подсказка : XviD
    Продолжительность : 2 ч. 0 м.
    Битрейт : 1329 Кбит/сек
    Ширина : 720 пикселей
    Высота : 304 пикселя
    Соотношение сторон : 2, 35: 1
    Частота кадров : 24, 000 кадра/сек
    Цветовое пространство : YUV
    Субдискретизация насыщенности : 4: 2: 0
    Битовая глубина : 8 бит
    Тип развёртки : Прогрессивная
    Метод сжатия : С потерями
    Бит/(Пиксели*Кадры) : 0.253
    Размер потока : 1, 12 Гбайт (77%)
    Библиотека кодирования : XviD 73
    Аудио
    Идентификатор : 1
    Формат : AC-3
    Формат/Информация : Audio Coding 3
    Расширение режима : CM (complete main)
    Параметр Endianness формата : Big
    Идентификатор кодека : 2000
    Продолжительность : 2 ч. 0 м.
    Вид битрейта : Постоянный
    Битрейт : 384 Кбит/сек
    Каналы : 6 каналов
    Расположение каналов : Front: L C R, Side: L R, LFE
    Частота : 48, 0 КГц
    Частота кадров : 31, 250 кадров/сек (1536 spf)
    Метод сжатия : С потерями
    Размер потока : 332 Мбайт (22%)
    Выравнивание : Разделение по промежуткам
    Продолжительность промежутка : 42 мс. (1, 00 видеокадр)
    Время предзагрузки промежутка : 500 мс.

    Залил: ukollov

    Онлайн видео Дурак (2014) HDRip от MegaPeer


    Размер скачиваемого торрента: 1.45 GB (1561217024 Bytes)

    Дурак (2014) HDRip от MegaPeer | iTunes
    загрузка...
    Рейтинг →
     (голосов: 1, оценка 3/5, голосовать можно 1 раз )

    Другие торренты по теме:

  • Дурак (2014) HDRip от MegaPeer
  • Дурак (2014) HDRip от Scarabey | Лицензия


    • Комментарии (0):

      Информация

      Информация

        Посетители, находящиеся в группе Гости, не могут оставлять комментарии в данной новости.

        ↓ Меню



        ↓ Опрос

        А Вы добавили сайт в закладки?
        Да
        Не


        Top 10 за месяц (Фильмы)