.
Авторизация | Регистрация
Хочешь лучшие торренты? Добавь свой email!
Добавить
» » Иисус / Jesus (1979) HDRip от MegaPeer | D скачать торрент бесплатно




    Иисус / Jesus (1979) HDRip от MegaPeer | D скачать торрент бесплатно

    Опубликовал: Админ | Дата: 1-05-2016, 20:41 | Просмотров: 95



    Детально о кино
    Русское название: Иисус
    Русское название в мировом прокате: Jesus
    Создали в: 1979
    Категория жанра: Драма, биография, история
    Главный режиссер: Джон Хейман/John Heyman

    Актеры
    Брайан Дикон, Ричард Кайли, Ривка Ньюман, Нико Нитай, Йосси Шиллоах, Моско Алкалай, Коби Ассаф

    Сюжет фильма

    Фильм Иисус — экранизация Евангелия от Луки. Как бы много различных фильмов вы ни видели, фильм Иисус отличается от любого из них. Этот фильм- честное повествование о жизни Христа, в буквальном смысле слова, изменяющее жизнь. Фильм Иисус переведен на большее количество языков, чем какой-бы то ни было еще. Ни один другой фильм за всю историю кинематографа не собирал такой громадной аудитории. В качестве основы для диалогов и событий фильма было использовано Евангелие от Луки. Прежде чем начать натурные сьемки в Израиле, были проведены скрупулезные исследования и подготовка, занявшие 5 лет. В специальных мастерских были изготовлены глиняные изделия, инструменты и одежда по образцам первого века от Рождества Христова.Мы хотели создать такой фильм, - сказал Пол Эшлеман, директор отдела по распространению фильма по всему миру, - который бы дал возможность зрителям лучше понять, что этот Человек, изменивший ход истории и продолжающий изменять жизнь в наши дни, сейчас является: ни БОГОМ, и ни человеком, Иисус сын БОЖИЙ (Наш Господь) .

    Снималось в: США
    Киностудия: Inspirathional films
    Время просмотра: 02: 07: 54
    Перевод текста : Профессиональный (дублированный)
    Файл
    Тип видео: AVI
    Качество фильма: HDRip
    Информация о видео: XviD, 720x400, 23.976 fps, 1423 kbps
    Информация о звуке: AC3, 2 ch, ~192 kbps
    Релиз:
    Скриншоты
    MediaInfo:
    Общее
    Полное имя : Jesus.1979.HDRip.1450MB.MegaPeer.avi
    Формат : AVI
    Формат/Информация : Audio Video Interleave
    Размер файла : 1, 45 Гбайт
    Продолжительность : 2 ч. 7 м.
    Общий поток : 1625 Кбит/сек
    Программа кодирования : VirtualDubMod 1.5.10.3 | www.virtualdub-fr.org || (build 2550/release)
    Библиотека кодирования : VirtualDubMod build 2550/release
    Видео
    Идентификатор : 0
    Формат : MPEG-4 Visual
    Профиль формата : Advanced Simple@L5
    Параметр BVOP формата : 1
    Параметр QPel формата : Нет
    Параметр GMC формата : Без точки перехода
    Параметр матрицы формата : Выборочная
    Идентификатор кодека : XVID
    Идентификатор кодека/Подсказка : XviD
    Продолжительность : 2 ч. 7 м.
    Битрейт : 1423 Кбит/сек
    Ширина : 720 пикселей
    Высота : 400 пикселей
    Соотношение сторон : 16: 9
    Частота кадров : 23, 976 (23976/1000) кадра/сек
    Цветовое пространство : YUV
    Субдискретизация насыщенности : 4: 2: 0
    Битовая глубина : 8 бит
    Тип развёртки : Прогрессивная
    Метод сжатия : С потерями
    Бит/(Пиксели*Кадры) : 0.206
    Размер потока : 1, 27 Гбайт (88%)
    Библиотека кодирования : XviD 73
    Аудио
    Идентификатор : 1
    Формат : AC-3
    Формат/Информация : Audio Coding 3
    Расширение режима : CM (complete main)
    Параметр Endianness формата : Big
    Идентификатор кодека : 2000
    Продолжительность : 2 ч. 7 м.
    Вид битрейта : Постоянный
    Битрейт : 192 Кбит/сек
    Каналы : 2 канала
    Расположение каналов : Front: L R
    Частота : 48, 0 КГц
    Частота кадров : 31, 250 кадров/сек (1536 spf)
    Метод сжатия : С потерями
    Размер потока : 176 Мбайт (12%)
    Выравнивание : Разделение по промежуткам
    Продолжительность промежутка : 42 мс. (1, 00 видеокадр)
    Время предзагрузки промежутка : 500 мс.

    Залил: ukollov
    Размер скачиваемого торрента: 1.45 GB (1558587392 Bytes)

    Иисус/Jesus (1979) HDRip от MegaPeer | D
    загрузка...
    Рейтинг →
     (голосов: 1, оценка 5/5, голосовать можно 1 раз )

    Другие торренты по теме:

  • Иисус из Назарета / Jesus of Nazareth (1977) 4хDVD5
  • Иисус Христос - суперзвезда / Jesus Christ Superstar Live Arena Tour (2012) BDRip 1080p
  • Иисус Христос Суперзвезда / Jesus Christ Superstar (2000) DVD9 от Brazzass
  • Иисус из Назарета / Jesus of Nazareth (1977) HDRip-AVC | L1
  • Эндрю Ллойд Уэббер - Иисус Христос - суперзвезда / Andrew Lloyd Webber - Jesus Christ Superstar (2012) BDRip-AVC от RG Jolly Roger
  • Иисус из Назарета / Jesus of Nazareth (1977) BDRip
  • History Channel. Тайны древности: Неизвестный Иисус / History Channel. The Unknown Jesus (1999) DVDRip от -=HD-NET=-
  • Несносный Генри / Иисус Генри Христос / Jesus Henry Christ (2012) HDRip | P


    • Комментарии (0):

      Информация

      Информация

        Посетители, находящиеся в группе Гости, не могут оставлять комментарии в данной новости.

        ↓ Меню



        ↓ Опрос

        А Вы добавили сайт в закладки?
        Да
        Не


        Top 10 за месяц (Фильмы)