.
Авторизация | Регистрация
Хочешь лучшие торренты? Добавь свой email!
Добавить
» » Переломные моменты истории / The Crossroads of History (2016) WEBRip 720p от Ozz | P2 скачать торрент бесплатно




    Переломные моменты истории / The Crossroads of History (2016) WEBRip 720p от Ozz | P2 скачать торрент бесплатно

    Опубликовал: Админ | Дата: 1-05-2016, 05:00 | Просмотров: 32




    Детально о кино
    Русское название: Переломные моменты истории
    Русское название в мировом прокате: The Crossroads of History
    Создали в: 2016
    Категория жанра: комедия
    Главный режиссер: Марко Славнич, Джек Бишоп, Justin Nijm

    Актеры
    Пол Шир, Анжела Кинси, Брайан Баумгартнер, Элизабет Шапиро, Кир О`Доннел, Бен Фельдман, Джастин Кирк, Стив Диттл


    Сюжет фильма

    Гитлер, Линкольн, Колумб и другие в новом скетч-шоу канала History. О таком не расскажут ни в одной школе. Эти моменты полностью изменили ход истории, но о них вы ни черта не слышали.



    Снималось в: США
    Время просмотра: ~00: 10: 00 серия
    Перевод текста: Профессиональный двухголосый Ozz

    Файл
    Кодек для видео: AVC
    Качество фильма: WEBRip 720p
    Информация о видео: 1280x720, 23, 976 кадра/сек, 1011 Кбит/сек
    Информация о звуке 1: AC3, 2 канала, 192 Кбит/сек Русский
    Информация о звуке 2: AC3, 2 канала, 192 Кбит/сек Английский
    Субтитры: Русские

    MediaInfo

    Формат : Matroska
    Версия формата : Version 4/Version 2
    Размер файла : 84, 8 Мбайт
    Продолжительность : 8 м. 19 с.
    Общий поток : 1423 Кбит/сек
    Дата кодирования : UTC 2016-03-22 17: 38: 16
    Программа кодирования : mkvmerge v6.3.0 (;You can;t stop me!;) built on Jun 28 2013 20: 09: 41
    Библиотека кодирования : libebml v1.3.0 + libmatroska v1.4.0

    Видео
    Идентификатор : 1
    Формат : AVC
    Формат/Информация : Advanced Video Codec
    Профиль формата : High@L3.1
    Параметр CABAC формата : Да
    Параметр ReFrames формата : 1 кадр
    Идентификатор кодека : V_MPEG4/ISO/AVC
    Продолжительность : 8 м. 19 с.
    Битрейт : 1011 Кбит/сек
    Ширина : 1280 пикселей
    Высота : 720 пикселей
    Соотношение сторон : 16: 9
    Режим частоты кадров : Постоянный
    Частота кадров : 23, 976 кадра/сек
    Цветовое пространство : YUV
    Субдискретизация насыщенности : 4: 2: 0
    Битовая глубина : 8 бит
    Тип развёртки : Прогрессивная
    Бит/(Пиксели*Кадры) : 0.046
    Размер потока : 60, 2 Мбайт (71%)
    Default : Да
    Forced : Нет

    Аудио #1
    Идентификатор : 2
    Формат : AC-3
    Формат/Информация : Audio Coding 3
    Расширение режима : CM (complete main)
    Параметр Endianness формата : Big
    Идентификатор кодека : A_AC3
    Продолжительность : 8 м. 19 с.
    Вид битрейта : Постоянный
    Битрейт : 192 Кбит/сек
    Каналы : 2 канала
    Расположение каналов : Front: L R
    Частота : 48, 0 КГц
    Битовая глубина : 16 бит
    Метод сжатия : С потерями
    Размер потока : 11, 4 Мбайт (13%)
    Заголовок : DVO Ozz-tv
    Язык : Russian
    Default : Да
    Forced : Нет

    Аудио #2
    Идентификатор : 3
    Формат : AC-3
    Формат/Информация : Audio Coding 3
    Расширение режима : CM (complete main)
    Параметр Endianness формата : Big
    Идентификатор кодека : A_AC3
    Продолжительность : 8 м. 19 с.
    Вид битрейта : Постоянный
    Битрейт : 192 Кбит/сек
    Каналы : 2 канала
    Расположение каналов : Front: L R
    Частота : 48, 0 КГц
    Битовая глубина : 16 бит
    Метод сжатия : С потерями
    Размер потока : 11, 4 Мбайт (13%)
    Язык : English
    Default : Нет
    Forced : Нет

    Текст
    Идентификатор : 4
    Формат : UTF-8
    Идентификатор кодека : S_TEXT/UTF8
    Идентификатор кодека/Информация : UTF-8 Plain Text
    Язык : Russian
    Default : Нет
    Forced : Нет


    Семпл

    Скриншоты


    Релиз подготовил: Ozz
    Залил: romanR10

    Онлайн видео Переломные моменты истории


    Размер скачиваемого торрента: 801.43 MB (840362459 Bytes)

    Переломные моменты истории/The Crossroads of History (2016) WEBRip 720p от Ozz | P2
    загрузка...
    Рейтинг →
     (голосов: 1, оценка 5/5, голосовать можно 1 раз )

    Другие торренты по теме:

  • Переломные моменты истории / The Crossroads of History (2016) WEBRip 720p от Ozz | P2


    • Комментарии (0):

      Информация

      Информация

        Посетители, находящиеся в группе Гости, не могут оставлять комментарии в данной новости.

        ↓ Меню



        ↓ Опрос

        А Вы добавили сайт в закладки?
        Да
        Не


        Top 10 за месяц (Фильмы)