.
Авторизация | Регистрация
Хочешь лучшие торренты? Добавь свой email!
Добавить
» » Школа мужества (1954) DVDRip от New-Team скачать торрент бесплатно




    Школа мужества (1954) DVDRip от New-Team скачать торрент бесплатно

    Опубликовал: Админ | Дата: 1-05-2016, 05:00 | Просмотров: 78



    Снималось в: СССР
    Создали в: Мосфильм
    Категория жанра: драма, приключения, военный
    Создали в: 1954
    Время просмотра: 01: 33: 39
    Перевод текста: Не требуется
    Субтитры подготовлены: нет
    Оригинальная аудиодорожка: русский
    Главный режиссер: Владимир Басов, Мстислав Корчагин

    Актеры

    Леонид Харитонов, Марк Бернес, Владимир Емельянов, Григорий Михайлов, Пётр Чернов, Евгения Мельникова, Роза Макагонова, Михаил Пуговкин, Владимир Горелов, Николай Граббе, Георгий Гумилевский, Вадим Захарченко, Николай Гарин, А. Сергеев...
    Полный список актёров
    Описание:
    В центре фильма судьба провинциального парня, ставшего участником революционных событий и гражданской войны. По мотивам произведений А.Гайдара.



    Источник: DVD5 R5
    Качество фильма видео: DVDRip
    Тип видео видео: AVI
    Информация о видео: 672x496 (4: 3), 25 fps, XviD ~ 1463 kbps avg, 0.176 bit/pixel
    Информация о звуке: 48 kHz, Dolby Digital AC3 2.0, 192 kbps
    Раздача от:
    MediaInfo

    Общее
    Полное имя : Shkola.muzhestva.1954.DVDRip_New-team_by_AVP_Studio.avi
    Формат : AVI
    Формат/Информация : Audio Video Interleave
    Размер файла : 1, 09 Гбайт
    Продолжительность : 1 ч. 33 м.
    Общий поток : 1665 Кбит/сек
    Программа кодирования : VirtualDubMod 1.5.10.3 | www.virtualdub-fr.org || (build 2550/release)
    Библиотека кодирования : VirtualDubMod build 2550/release
    Видео
    Идентификатор : 0
    Формат : MPEG-4 Visual
    Профиль формата : Advanced Simple@L5
    Параметр BVOP формата : 1
    Параметр QPel формата : Нет
    Параметр GMC формата : Без точки перехода
    Параметр матрицы формата : Выборочная
    Идентификатор кодека : XVID
    Идентификатор кодека/Подсказка : XviD
    Продолжительность : 1 ч. 33 м.
    Битрейт : 1463 Кбит/сек
    Ширина : 672 пикселя
    Высота : 496 пикселей
    Соотношение сторон : 4: 3
    Частота кадров : 25, 000 кадров/сек
    Цветовое пространство : YUV
    Субдискретизация насыщенности : 4: 2: 0
    Битовая глубина : 8 бит
    Тип развёртки : Прогрессивная
    Метод сжатия : С потерями
    Бит/(Пиксели*Кадры) : 0.176
    Размер потока : 980 Мбайт (88%)
    Библиотека кодирования : XviD 1.2.1 (UTC 2008-12-04)
    Аудио
    Идентификатор : 1
    Формат : AC-3
    Формат/Информация : Audio Coding 3
    Расширение режима : CM (complete main)
    Параметр Endianness формата : Big
    Идентификатор кодека : 2000
    Продолжительность : 1 ч. 33 м.
    Вид битрейта : Постоянный
    Битрейт : 192 Кбит/сек
    Каналы : 2 канала
    Расположение каналов : Front: L R
    Частота : 48, 0 КГц
    Частота кадров : 31, 250 кадров/сек (1536 spf)
    Метод сжатия : С потерями
    Размер потока : 129 Мбайт (12%)
    Выравнивание : Разделение по промежуткам
    Продолжительность промежутка : 40 мс. (1, 00 видеокадр)
    Время предзагрузки промежутка : 500 мс

    Скриншоты



    Залил: AVPStudio

    Онлайн видео Школа мужества (1954) DVDRip от New


    Размер скачиваемого торрента: 1.09 GB (1169164288 Bytes)

    Школа мужества (1954) DVDRip от New-Team
    загрузка...
    Рейтинг →
     (голосов: 1, оценка 5/5, голосовать можно 1 раз )

    Другие торренты по теме:

  • Школа выживания от одинокой женщины с тремя детьми в условиях кризиса (Школа выживания) (1-10 серии из 150) / 2015 / РУ / WEB-DLRip
  • Школа строгого режима / Школа-тюрьма / Prison School (2015) HDTVRip 720p от BTT-TEAM и SOUND-GROUP | L2
  • Школа строгого режима (Школа-тюрьма) (1-2 серии из 10) / Prison School / 2015 / ЛД (DeadSno & Den904) / HDTVRip (720p)
  • Клуб Винкс. Школа волшебниц / WinX Club (2012) WEB-DLRip | СТС
  • Школа интегрального воспитания (2011) WEB-DLRip
  • Семён Винокур - Школа интегрального воспитания (2011) MP3
  • Школа монстров: Классные девчонки / Monster High: Ghouls Rule! (2012) HDRip | Лицензия
  • Обдолбанная школа / Крутые кексы / High School (2010) BDRip-AVC | L1


    • Комментарии (0):

      Информация

      Информация

        Посетители, находящиеся в группе Гости, не могут оставлять комментарии в данной новости.

        ↓ Меню



        ↓ Опрос

        А Вы добавили сайт в закладки?
        Да
        Не


        Top 10 за месяц (Фильмы)