.
Авторизация | Регистрация
Хочешь лучшие торренты? Добавь свой email!
Добавить
» » Разверстые могилы / Open Graves (2009) HDRip-AVC от NNMClub | P, L1 скачать торрент бесплатно




    Разверстые могилы / Open Graves (2009) HDRip-AVC от NNMClub | P, L1 скачать торрент бесплатно

    Опубликовал: Админ | Дата: 30-04-2016, 05:00 | Просмотров: 71



    Создали в: США/Испания, Alchemedia Films, Manufacturas Audiovisuales, Open Pictures
    Категория жанра: Ужасы, Триллер
    Главный режиссер: Альваро Де Арминан
    Актеры: Элиза Душку, Майк Фогель, Борис Мартинез, Жозе Касасус, Лилиам Коури

    Описание фильма

    Группа серферов находит магическую настольную игру, после нескольких партий они с ужасом понимают, что в конце каждой кто-то снова будет умирать…

    Релиз подготовил: K.E.N(NNM-CLUB)
    Время просмотра: 01: 28: 05
    Качество фильма видео: HDRip-AVC
    Перевод текста: Профессиональный (многоголосый, закадровый), любительский (одноголосый, закадровый)
    Субтитры: Отсутствуют
    Информация о видео: AVC, 1024x556 (16: 9), 23.976 fps, 1 976 Kbps (0.145 bit/pixel)
    Информация о звуке #1: AC-3, 48.0 KHz, 2 ch, 192 Kbps, CBR (Russian)
    Информация о звуке #2: AC-3, 48.0 KHz, 2 ch, 192 Kbps, CBR (Russian)
    Mediainfo:

    Формат : Matroska
    Версия формата : Version 2
    Размер файла : 1, 45 Гбайт
    Продолжительность : 1 ч. 28 м.
    Общий поток : 2361 Кбит/сек
    Дата кодирования : UTC 2016-04-29 08: 51: 11
    Программа кодирования : mkvmerge v5.3.0 (;I could have danced;) built on Feb 9 2012 10: 38: 07
    Библиотека кодирования : libebml v1.2.3 + libmatroska v1.3.0
    Attachment : Yes
    Видео
    Идентификатор : 1
    Формат : AVC
    Формат/Информация : Advanced Video Codec
    Профиль формата : High@L4.1
    Параметр CABAC формата : Да
    Параметр ReFrames формата : 10 кадров
    Идентификатор кодека : V_MPEG4/ISO/AVC
    Продолжительность : 1 ч. 28 м.
    Битрейт : 1976 Кбит/сек
    Ширина : 1024 пикселя
    Высота : 556 пикселей
    Соотношение сторон : 1, 85: 1
    Режим частоты кадров : Постоянный
    Частота кадров : 23, 976 кадра/сек
    Цветовое пространство : YUV
    Субдискретизация насыщенности : 4: 2: 0
    Битовая глубина : 8 бит
    Тип развёртки : Прогрессивная
    Бит/(Пиксели*Кадры) : 0.145
    Размер потока : 1, 19 Гбайт (82%)
    Библиотека кодирования : x264 core 146 r2538 121396c
    Настройки программы : cabac=1/ref=10/deblock=1: -3: -3/analyse=0x3: 0x133/me=umh/subme=10/psy=1/psy_rd=1.00: 0.00/mixed_ref=1/me_range=32/chroma_me=1/trellis=2/8x8dct=1/cqm=0/deadzone=21, 11/fast_pskip=0/chroma_qp_offset=-2/threads=12/lookahead_threads=2/sliced_threads=0/nr=0/decimate=1/interlaced=0/bluray_compat=0/constrained_intra=0/bframes=8/b_pyramid=2/b_adapt=2/b_bias=0/direct=3/weightb=1/open_gop=0/weightp=2/keyint=240/keyint_min=23/scenecut=40/intra_refresh=0/rc=2pass/mbtree=0/bitrate=1976/ratetol=1.0/qcomp=0.60/qpmin=0/qpmax=69/qpstep=4/cplxblur=20.0/qblur=0.5/ip_ratio=1.40/pb_ratio=1.30/aq=2: 0.70
    Default : Да
    Forced : Нет
    Аудио #1
    Идентификатор : 2
    Формат : AC-3
    Формат/Информация : Audio Coding 3
    Расширение режима : CM (complete main)
    Параметр Endianness формата : Big
    Идентификатор кодека : A_AC3
    Продолжительность : 1 ч. 28 м.
    Вид битрейта : Постоянный
    Битрейт : 192 Кбит/сек
    Каналы : 2 канала
    Расположение каналов : Front: L R
    Частота : 48, 0 КГц
    Битовая глубина : 16 бит
    Метод сжатия : С потерями
    Размер потока : 121 Мбайт (8%)
    Заголовок : Многоголосый
    Язык : Russian
    Default : Да
    Forced : Нет
    Аудио #2
    Идентификатор : 3
    Формат : AC-3
    Формат/Информация : Audio Coding 3
    Расширение режима : CM (complete main)
    Параметр Endianness формата : Big
    Идентификатор кодека : A_AC3
    Продолжительность : 1 ч. 28 м.
    Вид битрейта : Постоянный
    Битрейт : 192 Кбит/сек
    Каналы : 2 канала
    Расположение каналов : Front: L R
    Частота : 48, 0 КГц
    Битовая глубина : 16 бит
    Метод сжатия : С потерями
    Размер потока : 121 Мбайт (8%)
    Заголовок : Любительский одноголосый
    Язык : Russian
    Default : Нет
    Forced : Нет

    Скриншоты:


    Онлайн видео Разверстые могилы


    Размер скачиваемого торрента: 1.45 GB (1560208830 Bytes)

    Разверстые могилы/Open Graves (2009) HDRip-AVC от NNMClub | P, L1
    загрузка...
    Рейтинг →
     (голосов: 1, оценка 3/5, голосовать можно 1 раз )

    Другие торренты по теме:



      Комментарии (0):

      Информация

      Информация

        Посетители, находящиеся в группе Гости, не могут оставлять комментарии в данной новости.

        ↓ Меню



        ↓ Опрос

        А Вы добавили сайт в закладки?
        Да
        Не


        Top 10 за месяц (Фильмы)