.
Авторизация | Регистрация
Хочешь лучшие торренты? Добавь свой email!
Добавить
» » Дэдпул / Deadpool (2016) BDRemux 1080p | iTunes, A, L1 скачать торрент бесплатно




    Дэдпул / Deadpool (2016) BDRemux 1080p | iTunes, A, L1 скачать торрент бесплатно

    Опубликовал: Админ | Дата: 28-04-2016, 13:27 | Просмотров: 41



    Детально о кино
    Русское название: Дэдпул
    Русское название в мировом прокате: Deadpool
    Создали в: 2016
    Категория жанра: фантастика, боевик, комедия, приключения
    Главный режиссер: Тим Миллер

    Актеры
    Райан Рейнольдс, Морена Баккарин, Эд Скрейн, ТиДжей Миллер, Джина Карано, Брианна Хилдебранд, Стефан Капичич, Лесли Уггэмс, Джед Риис, Каран Сони

    Сюжет фильма

    Уэйд Уилсон — наёмник. Будучи побочным продуктом программы вооружённых сил под названием Оружие X, Уилсон приобрёл невероятную силу, проворство и способность к исцелению. Но страшной ценой: его клеточная структура постоянно меняется, а здравомыслие сомнительно. Всё, чего Уилсон хочет, — это держаться на плаву в социальной выгребной яме. Но течение в ней слишком быстрое.

    Снималось в: США, Канада
    Киностудия: 20th Century Fox Film Corporation
    Время просмотра: 01: 48: 06
    Перевод текста: Профессиональный (дублированный) iTunes Russia + Авторский (одноголосый, закадровый) Е.Гаевский + Любительский (одноголосый, закадровый) В.Замез
    Файл
    Тип видео: Matroska
    Информация о видео: 1920x1080 at 23.976 fps, MPEG-4 AVC, ~23880 kbps avg
    Информация о звуке#1: Russian: 48 kHz, AC3, 3/2 (L, C, R, l, r) + LFE ch, ~384.00 kbps avg |Дубляж, iTunes Russia|
    Aудио#2: Russian: 48 kHz, AC3, 2/0 (L, R) ch, ~192.00 kbps avg |Авторский, Е.Гаевский|
    Aудио#3: Russian: 48 kHz, AC3, 2/0 (L, R) ch, ~192.00 kbps avg |Любительский, В.Замез|
    Aудио#4: Russian: 48 kHz, AC3, 2/0 (L, R) ch, ~192.00 kbps avg |Любительский, В.Замез (без цензуры)|
    Aудио#5: Ukrainian: 48 kHz, AC3, 2/0 (L, R) ch, ~192.00 kbps avg |Дубляж, iTunes Russia|
    Информация о звуке#6: English: 48 kHz, DTS-HD MA 7.1 ch, ~4892.00 kbps avg
    Субтитры: Russian (Forced, iTunes), Russian (iTunes), Ukrainian (Forced, iTunes), Ukrainian (iTunes), English
    ***Сохранены оригинальные главы как на Blu-ray.
    ***Сборка - bog3417.
    ***В раздаче две дорожки В.Замеза: цензурная и ненормативная.
    ***Перевод Е.Гаевского доступен благодаря: RW, napaHouk, boldino, kidman644, sivservik, scobra, ZeDOK, Старый, Pr0peLLer, RafL, bulovs, Loki1982, Антиквар, sancrew, ACID. Работа со звуком: Переводман. Внимание! В переводе присутствует ненормативная лексика!
    MI
    Общее
    Уникальный идентификатор : 249273000926136675758372963794305901974 (0xBB883BD286252B9CB41BB80AA3A76596)
    Полное имя : Deadpool.2016.BDRemux.1080p.bog3417.mkv
    Формат : Matroska
    Версия формата : Version 2
    Размер файла : 22, 6 Гбайт
    Продолжительность : 1 ч. 48 м.
    Режим общего битрейта : Переменный
    Общий поток : 29, 9 Мбит/сек
    Название фильма : Deadpool.2016.BDRip.720p
    Дата кодирования : UTC 2016-04-27 06: 47: 30
    Программа кодирования : mkvmerge v7.9.0 (;Birds;) 64bit
    Библиотека кодирования : libebml v1.3.1 + libmatroska v1.4.2
    Attachements : cover.jpg
    Видео
    Идентификатор : 1
    Формат : AVC
    Формат/Информация : Advanced Video Codec
    Профиль формата : High@L4.1
    Параметр CABAC формата : Да
    Параметр ReFrames формата : 4 кадра
    Идентификатор кодека : V_MPEG4/ISO/AVC
    Вид битрейта : Переменный
    Максимальный битрейт : 33, 0 Мбит/сек
    Ширина : 1920 пикселей
    Высота : 1080 пикселей
    Соотношение сторон : 16: 9
    Режим частоты кадров : Переменный
    Частота кадров в оригинале : 23, 976 кадра/сек
    Цветовое пространство : YUV
    Субдискретизация насыщенности : 4: 2: 0
    Битовая глубина : 8 бит
    Тип развёртки : Прогрессивная
    Default : Да
    Forced : Нет
    Аудио #1
    Идентификатор : 2
    Формат : AC-3
    Формат/Информация : Audio Coding 3
    Расширение режима : CM (complete main)
    Параметр Endianness формата : Big
    Идентификатор кодека : A_AC3
    Продолжительность : 1 ч. 48 м.
    Вид битрейта : Постоянный
    Битрейт : 384 Кбит/сек
    Каналы : 6 каналов
    Расположение каналов : Front: L C R, Side: L R, LFE
    Частота : 48, 0 КГц
    Метод сжатия : С потерями
    Задержка видео : 2 с. 64 мс.
    Размер потока : 297 Мбайт (1%)
    Заголовок : DUB biTunesB
    Язык : Russian
    Default : Да
    Forced : Нет
    Аудио #2
    Идентификатор : 3
    Формат : AC-3
    Формат/Информация : Audio Coding 3
    Расширение режима : CM (complete main)
    Параметр Endianness формата : Big
    Идентификатор кодека : A_AC3
    Продолжительность : 1 ч. 48 м.
    Вид битрейта : Постоянный
    Битрейт : 192 Кбит/сек
    Каналы : 2 канала
    Расположение каналов : Front: L R
    Частота : 48, 0 КГц
    Метод сжатия : С потерями
    Задержка видео : 2 с. 64 мс.
    Размер потока : 149 Мбайт (1%)
    Заголовок : AVO bGaevskyB
    Язык : Russian
    Default : Нет
    Forced : Нет
    Аудио #3
    Идентификатор : 4
    Формат : AC-3
    Формат/Информация : Audio Coding 3
    Расширение режима : CM (complete main)
    Параметр Endianness формата : Big
    Идентификатор кодека : A_AC3
    Продолжительность : 1 ч. 48 м.
    Вид битрейта : Постоянный
    Битрейт : 192 Кбит/сек
    Каналы : 2 канала
    Расположение каналов : Front: L R
    Частота : 48, 0 КГц
    Метод сжатия : С потерями
    Размер потока : 149 Мбайт (1%)
    Заголовок : Zamez ценз
    Язык : Russian
    Default : Нет
    Forced : Нет
    Аудио #4
    Идентификатор : 5
    Формат : AC-3
    Формат/Информация : Audio Coding 3
    Расширение режима : CM (complete main)
    Параметр Endianness формата : Big
    Идентификатор кодека : A_AC3
    Продолжительность : 1 ч. 48 м.
    Вид битрейта : Постоянный
    Битрейт : 192 Кбит/сек
    Каналы : 2 канала
    Расположение каналов : Front: L R
    Частота : 48, 0 КГц
    Метод сжатия : С потерями
    Размер потока : 149 Мбайт (1%)
    Заголовок : Zamez ненорматив
    Язык : Russian
    Default : Нет
    Forced : Нет
    Аудио #5
    Идентификатор : 6
    Формат : AC-3
    Формат/Информация : Audio Coding 3
    Расширение режима : CM (complete main)
    Параметр Endianness формата : Big
    Идентификатор кодека : A_AC3
    Продолжительность : 1 ч. 48 м.
    Вид битрейта : Постоянный
    Битрейт : 384 Кбит/сек
    Каналы : 2 канала
    Расположение каналов : Front: L R
    Частота : 48, 0 КГц
    Метод сжатия : С потерями
    Задержка видео : 2 с. 64 мс.
    Размер потока : 297 Мбайт (1%)
    Язык : Ukrainian
    Default : Нет
    Forced : Нет
    Аудио #6
    Идентификатор : 7
    Формат : DTS
    Формат/Информация : Digital Theater Systems
    Профиль формата : MA/Core
    Режим : 16
    Параметр Endianness формата : Big
    Идентификатор кодека : A_DTS
    Продолжительность : 1 ч. 48 м.
    Вид битрейта : Переменный
    Битрейт : Неизвестно/1509 Кбит/сек
    Каналы : 8 каналов/6 каналов
    Расположение каналов : Front: L C R, Side: L R, Back: L R, LFE/Front: L C R, Side: L R, LFE
    Частота : 48, 0 КГц
    Битовая глубина : 24 бит
    Метод сжатия : Без потерь/Lossy
    Язык : English
    Default : Нет
    Forced : Нет
    Текст #1
    Идентификатор : 8
    Формат : UTF-8
    Идентификатор кодека : S_TEXT/UTF8
    Идентификатор кодека/Информация : UTF-8 Plain Text
    Заголовок : Forced
    Язык : Russian
    Default : Да
    Forced : Нет
    Текст #2
    Идентификатор : 9
    Формат : UTF-8
    Идентификатор кодека : S_TEXT/UTF8
    Идентификатор кодека/Информация : UTF-8 Plain Text
    Язык : Russian
    Default : Нет
    Forced : Нет
    Текст #3
    Идентификатор : 10
    Формат : UTF-8
    Идентификатор кодека : S_TEXT/UTF8
    Идентификатор кодека/Информация : UTF-8 Plain Text
    Заголовок : Forced
    Язык : Ukrainian
    Default : Нет
    Forced : Нет
    Текст #4
    Идентификатор : 11
    Формат : UTF-8
    Идентификатор кодека : S_TEXT/UTF8
    Идентификатор кодека/Информация : UTF-8 Plain Text
    Язык : Ukrainian
    Default : Нет
    Forced : Нет
    Текст #5
    Идентификатор : 12
    Формат : UTF-8
    Идентификатор кодека : S_TEXT/UTF8
    Идентификатор кодека/Информация : UTF-8 Plain Text
    Язык : English
    Default : Нет
    Forced : Нет
    Меню
    00: 00: 00.000 : en: 1
    00: 03: 02.724 : en: 2
    00: 05: 51.017 : en: 3
    00: 09: 28.818 : en: 4
    00: 13: 17.087 : en: 5
    00: 16: 46.713 : en: 6
    00: 20: 10.541 : en: 7
    00: 22: 04.404 : en: 8
    00: 27: 07.623 : en: 9
    00: 31: 56.953 : en: 10
    00: 36: 49.704 : en: 11
    00: 41: 04.166 : en: 12
    00: 44: 43.760 : en: 13
    00: 46: 54.599 : en: 14
    00: 50: 08.960 : en: 15
    00: 53: 16.022 : en: 16
    00: 55: 31.032 : en: 17
    00: 59: 05.746 : en: 18
    01: 03: 03.233 : en: 19
    01: 07: 04.432 : en: 20
    01: 09: 13.561 : en: 21
    01: 12: 27.713 : en: 22
    01: 16: 44.386 : en: 23
    01: 20: 41.706 : en: 24
    01: 25: 51.390 : en: 25
    01: 31: 01.783 : en: 26
    01: 34: 44.964 : en: 27
    01: 39: 50.728 : en: 28
    Скриншоты



    Онлайн видео Дэдпул


    Размер скачиваемого торрента: 22.58 GB (24245419493 Bytes)

    Дэдпул/Deadpool (2016) BDRemux 1080p | iTunes, A, L1
    загрузка...
    Рейтинг →
     (голосов: 1, оценка 4/5, голосовать можно 1 раз )

    Другие торренты по теме:

  • Дэдпул / DeadPool (2016) качество CAMRip PROPER
  • Дэдпул / Deadpool (2016) CAMRip
  • Дэдпул / Deadpool (2015) WEBRip | Звук с CAMRip
  • Дэдпул / Deadpool (2016) WEB-DLRip от Dalemake | D | iTunes
  • Дэдпул / Deadpool (2016) WEB-DL 720p | iTunes
  • Дэдпул / Deadpool (2016) BDRip 1080p | iTunes, A, L1
  • Дэдпул / Deadpool (2016) WEB-DLRip от Scarabey | iTunes
  • Дэдпул / Deadpool (2016) WEB-DL 720p от ExKinoRay | D, A


    • Комментарии (0):

      Информация

      Информация

        Посетители, находящиеся в группе Гости, не могут оставлять комментарии в данной новости.

        ↓ Меню



        ↓ Опрос

        А Вы добавили сайт в закладки?
        Да
        Не


        Top 10 за месяц (Фильмы)