.
Авторизация | Регистрация
Хочешь лучшие торренты? Добавь свой email!
Добавить
» » Дэдпул / Deadpool (2016) WEB-DL 720p от ExKinoRay | D, A скачать торрент бесплатно




    Дэдпул / Deadpool (2016) WEB-DL 720p от ExKinoRay | D, A скачать торрент бесплатно

    Опубликовал: Админ | Дата: 27-04-2016, 15:26 | Просмотров: 81



    Детально о кино
    Русское название: Дэдпул
    Русское название в мировом прокате: Deadpool
    Создали в: 2016
    Категория жанра: Фантастика, боевик, триллер, приключения, комедия
    Главный режиссер: Тим Миллер

    Актеры
    Райан Рейнольдс, Морена Баккарин, Джина Карано, ТиДжей Миллер, Эд Скрейн, Рэйчел Шин, Брианна Хилдебранд, Андре Трикоте, Тэйлор Хиксон, Джед Риис

    Сюжет фильма

    У бывшего спецназовца Уэйда Уилсона было все, о чем можно только мечтать: перспективная высокооплачиваемая работа, отдельная жилплощадь и неземной красоты девушка, работающая в местном стриптиз-клубе. Но однажды случается непоправимое - у молодого человека диагностируют рак. В результате несчастного случая при прохождении курса вакуумной химиотерапии его внешность приобретает очертания кошмаров Фредди Крюгера, а скорость генерирования шуток черного юмора взлетает в стратосферу. Сможет ли его девушка пережить крутую смену имиджа любимого человека? Сможет ли он сам удержать свою нестабильную психику на плаву и не скатиться по наклонной?

    Снималось в: США
    Киностудия: 20th Century Fox Film Corporation
    Время просмотра: 01: 48: 42
    Перевод текста:
    Дублированный | iTunes
    Авторский одноголосый (закадровый) | В. Гаевский
    Файл
    Кодек для видео: MPEG-4
    Качество фильма: WEB-DL 720p
    Информация о видео: 1280x534, 4047 Kbit/s, 23.976 fps
    Информация о звуке:
    Информация о звуке #01: 48 kHz, AC3, 5.1, 384 Kbps | Дублированный, iTunes |
    Информация о звуке #02: 48 kHz, AC3, 2.0, 192 Kbps | Авторский одноголосый (закадровый), В.Гаевский |
    Информация о звуке #03: 48 kHz, AC3, 2.0, 384 Kbps | Дублированный, iTunes |
    Информация о звуке #04: 48 kHz, AAC, 2.0, 156 kbps | Оригинал |
    Субтитры: Русские (forced), русские (full), украинские (forced), украинские (full), английские (full)
    Релиз подготовил: Автор релиза:

    MI
    Общее
    Уникальный идентификатор : 252449752332617955439140860716868091984 (0xBDEC0DC25DEB0C28BE875768D416C050)
    Полное имя : F: VideoDeadpool.2016.WEB-DL.720p.ExKinoRay.mkv
    Формат : Matroska
    Версия формата : Version 4/Version 2
    Размер файла : 3, 92 Гбайт
    Продолжительность : 1 ч. 48 м.
    Общий поток : 5161 Кбит/сек
    Название фильма : Deadpool.2016.WEB-DL.720p.ExKinoRay
    Дата кодирования : UTC 2016-04-26 12: 00: 33
    Программа кодирования : mkvmerge v8.3.0 (;Over the Horizon;) 64bit
    Библиотека кодирования : libebml v1.3.1 + libmatroska v1.4.2
    Обложка : Yes
    Attachments : cover.jpg
    Видео
    Идентификатор : 1
    Формат : AVC
    Формат/Информация : Advanced Video Codec
    Профиль формата : Main@L3.1
    Параметр CABAC формата : Нет
    Параметр ReFrames формата : 2 кадра
    Идентификатор кодека : V_MPEG4/ISO/AVC
    Продолжительность : 1 ч. 48 м.
    Битрейт : 4047 Кбит/сек
    Ширина : 1280 пикселей
    Высота : 534 пикселя
    Соотношение сторон : 2, 40: 1
    Режим частоты кадров : Постоянный
    Частота кадров : 23, 976 (23976/1000) кадра/сек
    Цветовое пространство : YUV
    Субдискретизация насыщенности : 4: 2: 0
    Битовая глубина : 8 бит
    Тип развёртки : Прогрессивная
    Бит/(Пиксели*Кадры) : 0.247
    Размер потока : 3, 07 Гбайт (78%)
    Язык : English
    Default : Да
    Forced : Нет
    Цветовой диапазон : Limited
    Основные цвета : BT.709
    Характеристики трансфера : BT.709
    Коэффициенты матрицы : BT.709
    Аудио #1
    Идентификатор : 2
    Формат : AC-3
    Формат/Информация : Audio Coding 3
    Расширение режима : CM (complete main)
    Параметр Endianness формата : Big
    Идентификатор кодека : A_AC3
    Продолжительность : 1 ч. 48 м.
    Вид битрейта : Постоянный
    Битрейт : 384 Кбит/сек
    Каналы : 6 каналов
    Расположение каналов : Front: L C R, Side: L R, LFE
    Частота : 48, 0 КГц
    Частота кадров : 31, 250 кадров/сек (1536 spf)
    Метод сжатия : С потерями
    Размер потока : 297 Мбайт (7%)
    Заголовок : DUB iTunes
    Язык : Russian
    Default : Да
    Forced : Нет
    Аудио #2
    Идентификатор : 3
    Формат : AC-3
    Формат/Информация : Audio Coding 3
    Расширение режима : CM (complete main)
    Параметр Endianness формата : Big
    Идентификатор кодека : A_AC3
    Продолжительность : 1 ч. 48 м.
    Вид битрейта : Постоянный
    Битрейт : 192 Кбит/сек
    Каналы : 2 канала
    Расположение каналов : Front: L R
    Частота : 48, 0 КГц
    Частота кадров : 31, 250 кадров/сек (1536 spf)
    Метод сжатия : С потерями
    Размер потока : 148 Мбайт (4%)
    Заголовок : AVO Gaevsky
    Язык : Russian
    Default : Нет
    Forced : Нет
    Аудио #3
    Идентификатор : 4
    Формат : AC-3
    Формат/Информация : Audio Coding 3
    Расширение режима : CM (complete main)
    Параметр Endianness формата : Big
    Идентификатор кодека : A_AC3
    Продолжительность : 1 ч. 48 м.
    Вид битрейта : Постоянный
    Битрейт : 384 Кбит/сек
    Каналы : 2 канала
    Расположение каналов : Front: L R
    Частота : 48, 0 КГц
    Частота кадров : 31, 250 кадров/сек (1536 spf)
    Метод сжатия : С потерями
    Размер потока : 297 Мбайт (7%)
    Язык : Ukrainian
    Default : Нет
    Forced : Нет
    Аудио #4
    Идентификатор : 5
    Формат : AAC
    Формат/Информация : Advanced Audio Codec
    Профиль формата : LC
    Идентификатор кодека : A_AAC
    Продолжительность : 1 ч. 48 м.
    Битрейт : 156 Кбит/сек
    Каналы : 2 канала
    Расположение каналов : Front: L R
    Частота : 48, 0 КГц
    Частота кадров : 46, 875 кадров/сек (1024 spf)
    Метод сжатия : С потерями
    Размер потока : 121 Мбайт (3%)
    Язык : English
    Default : Нет
    Forced : Нет
    Текст #1
    Идентификатор : 6
    Формат : UTF-8
    Идентификатор кодека : S_TEXT/UTF8
    Идентификатор кодека/Информация : UTF-8 Plain Text
    Продолжительность : 1 ч. 33 м.
    Битрейт : 0 бит/сек
    Count of elements : 3
    Размер потока : 136 байт (0%)
    Заголовок : Forced iTunes
    Язык : Russian
    Default : Да
    Forced : Нет
    Текст #2
    Идентификатор : 7
    Формат : UTF-8
    Идентификатор кодека : S_TEXT/UTF8
    Идентификатор кодека/Информация : UTF-8 Plain Text
    Продолжительность : 1 ч. 47 м.
    Битрейт : 87 бит/сек
    Count of elements : 1404
    Размер потока : 68, 8 Кбайт (0%)
    Заголовок : RUS iTunes
    Язык : Russian
    Default : Нет
    Forced : Нет
    Текст #3
    Идентификатор : 8
    Формат : UTF-8
    Идентификатор кодека : S_TEXT/UTF8
    Идентификатор кодека/Информация : UTF-8 Plain Text
    Продолжительность : 1 ч. 47 м.
    Битрейт : 0 бит/сек
    Count of elements : 13
    Размер потока : 591 байт (0%)
    Заголовок : Forced iTunes
    Язык : Ukrainian
    Default : Нет
    Forced : Нет
    Текст #4
    Идентификатор : 9
    Формат : UTF-8
    Идентификатор кодека : S_TEXT/UTF8
    Идентификатор кодека/Информация : UTF-8 Plain Text
    Продолжительность : 1 ч. 47 м.
    Битрейт : 92 бит/сек
    Count of elements : 1420
    Размер потока : 73, 0 Кбайт (0%)
    Заголовок : UKR iTunes
    Язык : Ukrainian
    Default : Нет
    Forced : Нет
    Текст #5
    Идентификатор : 10
    Формат : UTF-8
    Идентификатор кодека : S_TEXT/UTF8
    Идентификатор кодека/Информация : UTF-8 Plain Text
    Продолжительность : 1 ч. 44 м.
    Битрейт : 55 бит/сек
    Count of elements : 1383
    Размер потока : 43, 0 Кбайт (0%)
    Заголовок : ENG iTunes
    Язык : English
    Default : Нет
    Forced : Нет
    Меню
    00: 00: 00.000 : en: 1
    00: 03: 02.724 : en: 2
    00: 05: 51.017 : en: 3
    00: 09: 28.818 : en: 4
    00: 13: 17.087 : en: 5
    00: 16: 46.713 : en: 6
    00: 20: 10.541 : en: 7
    00: 22: 04.404 : en: 8
    00: 27: 07.623 : en: 9
    00: 31: 56.953 : en: 10
    00: 36: 49.704 : en: 11
    00: 41: 04.166 : en: 12
    00: 44: 43.760 : en: 13
    00: 46: 54.599 : en: 14
    00: 50: 08.960 : en: 15
    00: 53: 16.022 : en: 16
    00: 55: 31.032 : en: 17
    00: 59: 05.746 : en: 18
    01: 03: 03.233 : en: 19
    01: 07: 04.432 : en: 20
    01: 09: 13.561 : en: 21
    01: 12: 27.713 : en: 22
    01: 16: 44.386 : en: 23
    01: 20: 41.706 : en: 24
    01: 25: 51.390 : en: 25
    01: 31: 01.783 : en: 26
    01: 34: 44.964 : en: 27
    01: 39: 50.728 : en: 28
    Скриншоты


    Онлайн видео Дэдпул


    Размер скачиваемого торрента: 3.92 GB (4207707934 Bytes)

    Дэдпул/Deadpool (2016) WEB-DL 720p от ExKinoRay | D, A
    загрузка...
    Рейтинг →
     (голосов: 1, оценка 4/5, голосовать можно 1 раз )

    Другие торренты по теме:

  • Дэдпул / DeadPool (2016) качество CAMRip PROPER
  • Дэдпул / Deadpool (2016) CAMRip
  • Дэдпул / Deadpool (2015) WEBRip | Звук с CAMRip
  • Дэдпул / Deadpool (2016) WEB-DLRip от Dalemake | D | iTunes
  • Дэдпул / Deadpool (2016) WEB-DL 720p | iTunes
  • Дэдпул / Deadpool (2016) BDRip 1080p | iTunes, A, L1
  • Дэдпул / Deadpool (2016) WEB-DLRip от Scarabey | iTunes
  • Дэдпул / Deadpool (2016) WEB-DLRip-AVC от Vaippp | iTunes


    • Комментарии (0):

      Информация

      Информация

        Посетители, находящиеся в группе Гости, не могут оставлять комментарии в данной новости.

        ↓ Меню



        ↓ Опрос

        А Вы добавили сайт в закладки?
        Да
        Не


        Top 10 за месяц (Фильмы)