.
Авторизация | Регистрация
Хочешь лучшие торренты? Добавь свой email!
Добавить




Жажда (2013) HDTVRip от GeneralFilm скачать торрент бесплатно

Опубликовал: Админ | Дата: 26-04-2016, 12:08 | Просмотров: 71



Детально о кино
Русское название в мировом прокате: Жажда
Создали в: 2013
Категория жанра: Драма
Главный режиссер: Дмитрий Тюрин

Актеры
Михаил Грубов, Сергей Лавыгин, Роман Курцын, Никита Остриков, Алексей Гуськов, Галина Бокашевская, Анна Банщикова, Светлана Смирнова-Марцинкевич, Георгий Соловьев, Андрей Попович

Сюжет фильма

Костя, талантливый художник, возвращается из Чечни с обожжённым лицом и стойкой обидой на жизнь. Он замыкается в себе, мало с кем общается и рисует мрачные портреты в духе Гойи. Однажды бесследно пропадает его фронтовой друг, который во время боевой операции спас ему жизнь. Костя вместе с двумя товарищами отправляется на его поиски. Так, ведомый обстоятельствами, он начинает выходить за пределы замкнутого круга и пытается увидеть мир под другим углом.

Снималось в: Россия
Киностудия: Всемирные Русские Студии
Время просмотра: 01: 35: 19
Файл
Тип видео: avi
Качество фильма: HDTVRip
Информация о видео: XviD build 73, 1987 Кбит/с, 720x400, 25 fps, 0.276 bit/pixel
Информация о звуке: AC3, 2 ch, 192 Кбит/с
Язык: Русский
МедиаИнфо
Zhazhda.2013.XviD.HDTVRip.by.GeneralFilm.avi
Формат : AVI
Формат/Информация : Audio Video Interleave
Размер файла : 1, 46 Гбайт
Продолжительность : 1 ч. 35 м.
Общий поток : 2189 Кбит/сек
Программа кодирования : VirtualDubMod 1.5.10.3 | www.virtualdub-fr.org || (build 2550/release)
Библиотека кодирования : VirtualDubMod build 2550/release
Видео
Идентификатор : 0
Формат : MPEG-4 Visual
Профиль формата : Advanced Simple@L5
Параметр BVOP формата : 1
Параметр QPel формата : Нет
Параметр GMC формата : Без точки перехода
Параметр матрицы формата : Выборочная
Идентификатор кодека : XVID
Идентификатор кодека/Подсказка : XviD
Продолжительность : 1 ч. 35 м.
Битрейт : 1987 Кбит/сек
Ширина : 720 пикселей
Высота : 400 пикселей
Соотношение сторон : 16: 9
Частота кадров : 25, 000 кадров/сек
Цветовое пространство : YUV
Субдискретизация насыщенности : 4: 2: 0
Битовая глубина : 8 бит
Тип развёртки : Прогрессивная
Метод сжатия : С потерями
Бит/(Пиксели*Кадры) : 0.276
Размер потока : 1, 32 Гбайт (91%)
Библиотека кодирования : XviD 73
Аудио
Идентификатор : 1
Формат : AC-3
Формат/Информация : Audio Coding 3
Расширение режима : CM (complete main)
Параметр Endianness формата : Big
Идентификатор кодека : 2000
Продолжительность : 1 ч. 35 м.
Вид битрейта : Постоянный
Битрейт : 192 Кбит/сек
Каналы : 2 канала
Расположение каналов : Front: L R
Частота : 48, 0 КГц
Частота кадров : 31, 250 кадров/сек (1536 spf)
Метод сжатия : С потерями
Размер потока : 131 Мбайт (9%)
Выравнивание : Разделение по промежуткам
Продолжительность промежутка : 40 мс. (1, 00 видеокадр)
Время предзагрузки промежутка : 500 мс.

Семпл
http://sendfile.su/1228036

Скриншоты





Релиз подготовил:
Залил: vsobbol

Онлайн видео Контрибуция (2016) WEB-DL 720p от ExKinoRay


Размер скачиваемого торрента: 1.46 GB (1565083648 Bytes)

Жажда (2013) HDTVRip от GeneralFilm
загрузка...
Рейтинг →
 (голосов: 1, оценка 5/5, голосовать можно 1 раз )

Другие торренты по теме:

  • Жажда смерти 2 / Death Wish II (1981) HDTVRip 1080p от RG MixTorrent | P


    • Комментарии (0):

      Информация

      Информация

        Посетители, находящиеся в группе Гости, не могут оставлять комментарии в данной новости.

        ↓ Меню



        ↓ Опрос

        А Вы добавили сайт в закладки?
        Да
        Не


        Top 10 за месяц (Фильмы)