.
Авторизация | Регистрация
Хочешь лучшие торренты? Добавь свой email!
Добавить
» » Звёздные войны: Пробуждение силы / Star Wars: Episode VII - The Force Awakens (2015) BDRip 720p от ExKinoRay | D, P скачать торрент бесплатно




    Звёздные войны: Пробуждение силы / Star Wars: Episode VII - The Force Awakens (2015) BDRip 720p от ExKinoRay | D, P скачать торрент бесплатно

    Опубликовал: Админ | Дата: 26-04-2016, 12:08 | Просмотров: 55



    Детально о кино
    Русское название: Звёздные войны: Пробуждение силы
    Русское название в мировом прокате: Star Wars: Episode VII - The Force Awakens
    Создали в: 2015
    Категория жанра: Фантастика, фэнтези, боевик, приключения
    Главный режиссер: Джей Джей Абрамс

    Актеры
    Джон Бойега, Дэйзи Ридли, Оскар Айзек, Адам Драйвер, Донал Глисон, Харрисон Форд, Марк Хэмилл, Кэрри Фишер, Макс фон Сюдов, Энди Серкис, Лупита Нионго, Энтони Дэниелс, Питер Мейхью, Гвендолин Кристи, Пип Андерсон, Саймон Пегг, Киран Шах, Саша Фрост, Пип Торренс, Эндрю Джек

    Сюжет фильма

    Через тридцать лет после гибели Дарта Вейдера и Императора галактика по-прежнему в опасности. Государственное образование Новый Порядок во главе с их таинственным верховным лидером Сноуком и его правой рукой Кайло Реном идёт по стопам Империи, пытаясь захватить всю власть. В это нелёгкое время судьба сводит юную девушку Рей и бывшего штурмовика Нового Порядка Финна с героями времён войны с Империей — Ханом Соло, Чубаккой и Королевой Леей. Вместе они должны дать бой Новому Порядку, однако настаёт тот момент, когда становится очевидно, что лишь джедаи могут остановить Сноука и Кайло Рена. И в галактике в живых остаётся только один…

    Снималось в: США
    Киностудия: Bad Robot, Lucasfilm Ltd., Truenorth Productions
    Время просмотра: 02: 18: 06
    Перевод текста:
    Дублированный | Лицензия
    Профессиональный многоголосый (закадровый) | FocusStudio
    Файл
    Кодек для видео: MPEG-4
    Качество фильма: BDRip 720p
    Информация о видео: 1280x536, 7909 Kbit/s, 23.976 fps
    Информация о звуке:
    Информация о звуке #1: 48.0 Khz, AC3, 5.1, 640 Kbps | Дублированный, Лицензия | RUS
    Информация о звуке #2: 48.0 Khz, DTS, 5.1, 1510 Kbps | Профессиональный многоголосый (закадровый), FocusStudio | RUS
    Информация о звуке #3: 48.0 Khz, DTS, 5.1, 1510 Kbps | Оригинал | ENG
    Субтитры: Русские (форсированные), русские (форсированные |речь дроидов|), русские (форсированные |речь пришельцев|), русские (полные), английские (Srt, SDH, SDH colored)
    Релиз подготовил:
    Автор релиза:
    MI
    Общее
    Уникальный идентификатор : 201669908990458151904305367920853158990 (0x97B8362F649084618668C0D733C08C4E)
    Полное имя : F: VideoStar.Wars.Episode.VII.The.Force.Awakens.2015.BDRip.720p.ExKinoRay.mkv
    Формат : Matroska
    Версия формата : Version 4/Version 2
    Размер файла : 11, 2 Гбайт
    Продолжительность : 2 ч. 18 м.
    Общий поток : 11, 6 Мбит/сек
    Название фильма : Star.Wars.Episode.VII.The.Force.Awakens.2015.BDRip.720p.ExKinoRay
    Дата кодирования : UTC 2016-04-25 11: 17: 28
    Программа кодирования : mkvmerge v8.3.0 (;Over the Horizon;) 64bit
    Библиотека кодирования : libebml v1.3.1 + libmatroska v1.4.2
    Обложка : Yes
    Attachments : Cover.jpg
    Видео
    Идентификатор : 1
    Формат : AVC
    Формат/Информация : Advanced Video Codec
    Профиль формата : High@L4.1
    Параметр CABAC формата : Да
    Параметр ReFrames формата : 12 кадров
    Идентификатор кодека : V_MPEG4/ISO/AVC
    Продолжительность : 2 ч. 18 м.
    Битрейт : 7909 Кбит/сек
    Ширина : 1280 пикселей
    Высота : 536 пикселей
    Соотношение сторон : 2, 40: 1
    Режим частоты кадров : Постоянный
    Частота кадров : 23, 976 (24000/1001) кадра/сек
    Цветовое пространство : YUV
    Субдискретизация насыщенности : 4: 2: 0
    Битовая глубина : 8 бит
    Тип развёртки : Прогрессивная
    Бит/(Пиксели*Кадры) : 0.481
    Размер потока : 7, 63 Гбайт (68%)
    Заголовок : Star.Wars.Episode.VII.The.Force.Awakens.2015.BDRip.720p.ExKinoRay
    Библиотека кодирования : x264 core 146 r2538 121396c
    Настройки программы : cabac=1/ref=12/deblock=1: -3: -3/analyse=0x3: 0x133/me=umh/subme=11/psy=1/psy_rd=1.00: 0.00/mixed_ref=1/me_range=32/chroma_me=1/trellis=2/8x8dct=1/cqm=0/deadzone=21, 11/fast_pskip=0/chroma_qp_offset=-2/threads=6/lookahead_threads=1/sliced_threads=0/nr=0/decimate=0/interlaced=0/bluray_compat=0/constrained_intra=0/bframes=9/b_pyramid=2/b_adapt=2/b_bias=0/direct=3/weightb=1/open_gop=0/weightp=2/keyint=240/keyint_min=23/scenecut=40/intra_refresh=0/rc_lookahead=60/rc=2pass/mbtree=0/bitrate=7909/ratetol=1.0/qcomp=0.60/qpmin=0/qpmax=69/qpstep=4/cplxblur=20.0/qblur=0.5/vbv_maxrate=50000/vbv_bufsize=62500/nal_hrd=none/filler=0/ip_ratio=1.40/pb_ratio=1.30/aq=3: 0.80
    Язык : English
    Default : Да
    Forced : Нет
    Аудио #1
    Идентификатор : 2
    Формат : AC-3
    Формат/Информация : Audio Coding 3
    Расширение режима : CM (complete main)
    Параметр Endianness формата : Big
    Идентификатор кодека : A_AC3
    Продолжительность : 2 ч. 18 м.
    Вид битрейта : Постоянный
    Битрейт : 640 Кбит/сек
    Каналы : 6 каналов
    Расположение каналов : Front: L C R, Side: L R, LFE
    Частота : 48, 0 КГц
    Частота кадров : 31, 250 кадров/сек (1536 spf)
    Метод сжатия : С потерями
    Размер потока : 632 Мбайт (6%)
    Заголовок : DUB License Blu-Ray EUR
    Язык : Russian
    Default : Да
    Forced : Нет
    Аудио #2
    Идентификатор : 3
    Формат : DTS
    Формат/Информация : Digital Theater Systems
    Режим : 16
    Параметр Endianness формата : Big
    Идентификатор кодека : A_DTS
    Продолжительность : 2 ч. 18 м.
    Вид битрейта : Постоянный
    Битрейт : 1509 Кбит/сек
    Каналы : 6 каналов
    Расположение каналов : Front: L C R, Side: L R, LFE
    Частота : 48, 0 КГц
    Частота кадров : 93, 750 кадра/сек (512 spf)
    Битовая глубина : 24 бит
    Метод сжатия : С потерями
    Размер потока : 1, 46 Гбайт (13%)
    Заголовок : MVO FocusStudio
    Язык : Russian
    Default : Нет
    Forced : Нет
    Аудио #3
    Идентификатор : 4
    Формат : DTS
    Формат/Информация : Digital Theater Systems
    Режим : 16
    Параметр Endianness формата : Big
    Идентификатор кодека : A_DTS
    Продолжительность : 2 ч. 18 м.
    Вид битрейта : Постоянный
    Битрейт : 1509 Кбит/сек
    Каналы : 6 каналов
    Расположение каналов : Front: L C R, Side: L R, LFE
    Частота : 48, 0 КГц
    Частота кадров : 93, 750 кадра/сек (512 spf)
    Битовая глубина : 24 бит
    Метод сжатия : С потерями
    Размер потока : 1, 46 Гбайт (13%)
    Заголовок : Original
    Язык : English
    Default : Нет
    Forced : Нет
    Текст #1
    Идентификатор : 5
    Формат : UTF-8
    Идентификатор кодека : S_TEXT/UTF8
    Идентификатор кодека/Информация : UTF-8 Plain Text
    Продолжительность : 13 м.
    Битрейт : 2 бит/сек
    Count of elements : 7
    Размер потока : 314 байт (0%)
    Заголовок : Forced
    Язык : Russian
    Default : Да
    Forced : Нет
    Текст #2
    Идентификатор : 6
    Формат : UTF-8
    Идентификатор кодека : S_TEXT/UTF8
    Идентификатор кодека/Информация : UTF-8 Plain Text
    Продолжительность : 2 ч. 2 м.
    Битрейт : 5 бит/сек
    Count of elements : 137
    Размер потока : 4, 81 Кбайт (0%)
    Заголовок : forced with droids
    Язык : Russian
    Default : Нет
    Forced : Нет
    Текст #3
    Идентификатор : 7
    Формат : UTF-8
    Идентификатор кодека : S_TEXT/UTF8
    Идентификатор кодека/Информация : UTF-8 Plain Text
    Продолжительность : 13 м.
    Битрейт : 2 бит/сек
    Count of elements : 7
    Размер потока : 314 байт (0%)
    Заголовок : forced with aliens
    Язык : Russian
    Default : Нет
    Forced : Нет
    Текст #4
    Идентификатор : 8
    Формат : UTF-8
    Идентификатор кодека : S_TEXT/UTF8
    Идентификатор кодека/Информация : UTF-8 Plain Text
    Продолжительность : 2 ч. 0 м.
    Битрейт : 67 бит/сек
    Count of elements : 1291
    Размер потока : 59, 4 Кбайт (0%)
    Заголовок : full
    Язык : Russian
    Default : Нет
    Forced : Нет
    Текст #5
    Идентификатор : 9
    Формат : UTF-8
    Идентификатор кодека : S_TEXT/UTF8
    Идентификатор кодека/Информация : UTF-8 Plain Text
    Продолжительность : 2 ч. 2 м.
    Битрейт : 72 бит/сек
    Count of elements : 1398
    Размер потока : 64, 8 Кбайт (0%)
    Заголовок : R5 with droids
    Язык : Russian
    Default : Нет
    Forced : Нет
    Текст #6
    Идентификатор : 10
    Формат : UTF-8
    Идентификатор кодека : S_TEXT/UTF8
    Идентификатор кодека/Информация : UTF-8 Plain Text
    Продолжительность : 2 ч. 0 м.
    Битрейт : 40 бит/сек
    Count of elements : 1403
    Размер потока : 35, 9 Кбайт (0%)
    Язык : English
    Default : Нет
    Forced : Нет
    Текст #7
    Идентификатор : 11
    Формат : UTF-8
    Идентификатор кодека : S_TEXT/UTF8
    Идентификатор кодека/Информация : UTF-8 Plain Text
    Продолжительность : 2 ч. 6 м.
    Битрейт : 50 бит/сек
    Count of elements : 1778
    Размер потока : 47, 1 Кбайт (0%)
    Заголовок : SDH
    Язык : English
    Default : Нет
    Forced : Нет
    Текст #8
    Идентификатор : 12
    Формат : UTF-8
    Идентификатор кодека : S_TEXT/UTF8
    Идентификатор кодека/Информация : UTF-8 Plain Text
    Продолжительность : 2 ч. 6 м.
    Битрейт : 74 бит/сек
    Count of elements : 1778
    Размер потока : 69, 6 Кбайт (0%)
    Заголовок : SDH Color
    Язык : English
    Default : Нет
    Forced : Нет
    Меню #1
    00: 00: 00.000 : en: Opening Logo
    00: 00: 09.259 : en: The Force Awakens
    00: 01: 43.061 : en: The First Order Approaches
    00: 03: 51.857 : en: Village Raid
    00: 06: 12.289 : en: Kylo Ren
    00: 09: 33.948 : en: FN-2187
    00: 10: 43.560 : en: Rey
    00: 12: 35.713 : en: Niima Outpost
    00: 13: 39.694 : en: Rey at Home
    00: 14: 48.221 : en: Saving BB-8
    00: 16: 45.922 : en: Interrogation
    00: 18: 04.583 : en: Unkar;s Offer
    00: 19: 21.535 : en: Jailbreak
    00: 21: 26.619 : en: TIE Gighter Escape
    00: 24: 03.651 : en: Marooned on Jakku
    00: 26: 47.022 : en: Crossing Paths
    00: 29: 54.668 : en: Marketplace Chase
    00: 31: 49.324 : en: The Falcon Flies Again
    00: 35: 51.775 : en: Introductions
    00: 36: 40.615 : en: Kylo Is Updated
    00: 37: 45.513 : en: Fixing the Falcon
    00: 40: 19.250 : en: Chewie, We;re Home
    00: 43: 39.200 : en: Corellion Stand
    00: 45: 29.560 : en: Rathtar Mayhem
    00: 49: 22.918 : en: Supreme Leader
    00: 51: 19.952 : en: It;s All True
    00: 54: 13.750 : en: Meeting Maz
    00: 59: 48.794 : en: Discussions of Destinies
    01: 04: 16.061 : en: Visions in the Force
    01: 08: 37.238 : en: Starkiller
    01: 11: 07.221 : en: First Order Invasion
    01: 15: 16.387 : en: Resistance to the Rescue
    01: 16: 49.897 : en: Kylo Finds Rey
    01: 19: 37.523 : en: Reunion
    01: 20: 56.894 : en: Resistance Base
    01: 25: 36.173 : en: Rey Imprisoned
    01: 32: 12.569 : en: Resistance Briefing
    01: 35: 29.015 : en: Starkiller Landing
    01: 36: 34.956 : en: Base Infiltration
    01: 39: 28.629 : en: X-Wing Attack
    01: 41: 29.959 : en: Rejoining Rey
    01: 42: 57.505 : en: Into The Oscillator
    01: 45: 00.002 : en: Father and Son
    01: 50: 33.710 : en: Dark Forest
    01: 53: 39.771 : en: Oscillator Breached
    01: 55: 22.165 : en: Forest Duel
    01: 58: 05.453 : en: Cataclysm
    02: 01: 05.592 : en: Made Whole
    02: 02: 32.679 : en: Finding the Master
    02: 07: 07.578 : en: End Credits
    Меню #2
    00: 00: 00.000 : en: Opening Logo
    00: 00: 09.259 : en: The Force Awakens
    00: 01: 43.061 : en: The First Order Approaches
    00: 03: 51.856 : en: Village Raid
    00: 06: 12.288 : en: Kylo Ren
    00: 09: 33.948 : en: FN-2187
    00: 10: 43.559 : en: Rey
    00: 12: 35.713 : en: Niima Outpost
    00: 13: 39.693 : en: Rey at Home
    00: 14: 48.220 : en: Saving BB-8
    00: 16: 45.921 : en: Interrogation
    00: 18: 04.583 : en: Unkar;s Offer
    00: 19: 21.535 : en: Jailbreak
    00: 21: 26.618 : en: TIE Gighter Escape
    00: 24: 03.650 : en: Marooned on Jakku
    00: 26: 47.022 : en: Crossing Paths
    00: 29: 54.667 : en: Marketplace Chase
    00: 31: 49.324 : en: The Falcon Flies Again
    00: 35: 51.774 : en: Introductions
    00: 36: 40.615 : en: Kylo Is Updated
    00: 37: 45.513 : en: Fixing the Falcon
    00: 40: 19.250 : en: Chewie, We;re Home
    00: 43: 39.199 : en: Corellion Stand
    00: 45: 29.560 : en: Rathtar Mayhem
    00: 49: 22.918 : en: Supreme Leader
    00: 51: 19.951 : en: It;s All True
    00: 54: 13.750 : en: Meeting Maz
    00: 59: 48.793 : en: Discussions of Destinies
    01: 04: 16.060 : en: Visions in the Force
    01: 08: 37.238 : en: Starkiller
    01: 11: 07.221 : en: First Order Invasion
    01: 15: 16.386 : en: Resistance to the Rescue
    01: 16: 49.896 : en: Kylo Finds Rey
    01: 19: 37.522 : en: Reunion
    01: 20: 56.893 : en: Resistance Base
    01: 25: 36.172 : en: Rey Imprisoned
    01: 32: 12.568 : en: Resistance Briefing
    01: 35: 29.014 : en: Starkiller Landing
    01: 36: 34.955 : en: Base Infiltration
    01: 39: 28.629 : en: X-Wing Attack
    01: 41: 29.958 : en: Rejoining Rey
    01: 42: 57.504 : en: Into The Oscillator
    01: 45: 00.002 : en: Father and Son
    01: 50: 33.710 : en: Dark Forest
    01: 53: 39.771 : en: Oscillator Breached
    01: 55: 22.165 : en: Forest Duel
    01: 58: 05.453 : en: Cataclysm
    02: 01: 05.591 : en: Made Whole
    02: 02: 32.678 : en: Finding the Master
    02: 07: 07.578 : en: End Credits
    Скриншоты


    Онлайн видео Звёздные войны: Пробуждение силы


    Размер скачиваемого торрента: 11.16 GB (11984961170 Bytes)

    Звёздные войны: Пробуждение силы/Star Wars: Episode VII - The Force Awakens (2015) BDRip 720p от ExKinoRay | D, P
    загрузка...
    Рейтинг →
     (голосов: 1, оценка 3/5, голосовать можно 1 раз )

    Другие торренты по теме:

  • Звёздные войны: Роболомка (1999) PC
  • OST - Звёздные войны Эпизод I - III / Star Wars Episode I - III (1999 - 2005) MP3
  • Различные авторы - Звёздные войны (1976-2013) TXT
  • Звёздные войны: Эпизод 4 - Новая надежда / Star Wars: Episode IV - A New Hope (1977) HDRip-AVC от Leo.pard and Scarabey | Лицензия
  • Звёздные войны: Эпизод 5 – Империя наносит ответный удар / Star Wars: Episode V - The Empire Strikes Back (1980) HDRip-AVC от Scarabey | D скачать через торрент бесплатно
  • Звёздные войны: Эпизод 1 – Скрытая угроза / Star Wars: Episode I - The Phantom Menace (1999) HDRip-AVC от Leo.pard and Scarabey | Лицензия скачать через торрент бесплатно
  • Звёздные войны: Эпизод 3 – Месть Ситхов / Star Wars: Episode III - Revenge of the Sith (2005) HDRip-AVC от Leo.pard and Scarabey | Лицензия скачать через торрент бесплатно
  • Звёздные войны: Эпизод 2 – Атака клонов / Star Wars: Episode II - Attack of the Clones (2002) HDRip-AVC от Leo.pard and Scarabey | Лицензия скачать через торрент бесплатно


    • Комментарии (0):

      Информация

      Информация

        Посетители, находящиеся в группе Гости, не могут оставлять комментарии в данной новости.

        ↓ Меню



        ↓ Опрос

        А Вы добавили сайт в закладки?
        Да
        Не


        Top 10 за месяц (Фильмы)