.
Авторизация | Регистрация
Хочешь лучшие торренты? Добавь свой email!
Добавить
» » Звёздные войны: Пробуждение силы / Star Wars: Episode VII - The Force Awakens (2015) BDRip | D | Лицензия скачать торрент бесплатно




    Звёздные войны: Пробуждение силы / Star Wars: Episode VII - The Force Awakens (2015) BDRip | D | Лицензия скачать торрент бесплатно

    Опубликовал: Админ | Дата: 24-04-2016, 15:46 | Просмотров: 37



    Детально о кино
    Русское название: Звёздные войны: Пробуждение силы
    Русское название в мировом прокате: Star Wars: Episode VII - The Force Awakens
    Создали в: 2015
    Категория жанра: Фантастика, фэнтези, боевик, приключения
    Главный режиссер: Джей Джей Абрамс

    Актеры
    Джон Бойега, Дэйзи Ридли, Оскар Айзек, Адам Драйвер, Донал Глисон, Харрисон Форд, Марк Хэмилл, Кэрри Фишер, Макс фон Сюдов, Энди Серкис, Лупита Нионго, Энтони Дэниелс, Питер Мейхью, Гвендолин Кристи, Пип Андерсон, Саймон Пегг, Киран Шах, Саша Фрост, Пип Торренс, Эндрю Джек

    Сюжет фильма

    Через тридцать лет после гибели Дарта Вейдера и Императора галактика по-прежнему в опасности. Государственное образование Первый Орден во главе с таинственным верховным лидером Сноуком и его правой рукой Кайло Реном идёт по стопам Империи, пытаясь захватить всю власть. В это нелёгкое время судьба сводит юную девушку Рей и бывшего штурмовика Первого Ордена Финна с героями войны с Империей — Ханом Соло, Чубаккой и генералом Леей. Вместе они должны дать бой Первому Ордену, однако настаёт тот момент, когда становится очевидно, что лишь джедаи могут остановить Сноука и Кайло Рена.

    Снималось в: США
    Киностудия: Bad Robot, Lucasfilm Ltd., Truenorth Productions
    Время просмотра: 02: 18: 06
    Перевод текста: Профессиональный (полное дублирование)BD EUR
    Файл
    Качество фильма: BDRip (исх.Star.Wars.Episode.VII.The.Force.Awakens..2015..BDREMUX.1080p.mkv )
    Кодек для видео: XviD
    Информация о видео: 720x304 (2, 35: 1), 23, 976 fps, Xvid ~1804 kbps avg, 0.344 bit/pixel
    Информация о звуке: 48 kHz, AC3, 6 ch, ~448.00 kbps avg | русский |Профессиональный (полное дублирование)BD EUR
    Субтитры: Русские (вшитые на надписи и на наречие пришельцев)
    Семпл
    Инфо-файл
    Общее
    Полное имя : D: TorrentsЗавершенныеStar.Wars.Episode.VII.The.Force.Awakens.2015.BDRip.2.18_by sudar007.avi
    Формат : AVI
    Формат/Информация : Audio Video Interleave
    Профиль формата : OpenDML
    Размер файла : 2, 18 Гбайт
    Продолжительность : 2 ч. 18 м.
    Общий поток : 2264 Кбит/сек
    Программа кодирования : VirtualDubMod 1.5.10.3 (build 2550/release)
    Библиотека кодирования : VirtualDubMod build 2550/release
    Видео
    Идентификатор : 0
    Формат : MPEG-4 Visual
    Профиль формата : Advanced Simple@L5
    Параметр BVOP формата : 2
    Параметр QPel формата : Нет
    Параметр GMC формата : Без точки перехода
    Параметр матрицы формата : Default (MPEG)
    Идентификатор кодека : XVID
    Идентификатор кодека/Подсказка : XviD
    Продолжительность : 2 ч. 18 м.
    Битрейт : 1804 Кбит/сек
    Ширина : 720 пикселей
    Высота : 304 пикселя
    Соотношение сторон : 2, 35: 1
    Частота кадров : 23, 976 (23976/1000) кадра/сек
    Цветовое пространство : YUV
    Субдискретизация насыщенности : 4: 2: 0
    Битовая глубина : 8 бит
    Тип развёртки : Прогрессивная
    Метод сжатия : С потерями
    Бит/(Пиксели*Кадры) : 0.344
    Размер потока : 1, 74 Гбайт (80%)
    Библиотека кодирования : XviD 73
    Аудио
    Идентификатор : 1
    Формат : AC-3
    Формат/Информация : Audio Coding 3
    Расширение режима : CM (complete main)
    Параметр Endianness формата : Big
    Идентификатор кодека : 2000
    Продолжительность : 2 ч. 18 м.
    Вид битрейта : Постоянный
    Битрейт : 448 Кбит/сек
    Каналы : 6 каналов
    Расположение каналов : Front: L C R, Side: L R, LFE
    Частота : 48, 0 КГц
    Частота кадров : 31, 250 кадров/сек (1536 spf)
    Метод сжатия : С потерями
    Размер потока : 443 Мбайт (20%)
    Выравнивание : Разделение по промежуткам
    Продолжительность промежутка : 42 мс. (1, 00 видеокадр)
    Время предзагрузки промежутка : 500 мс.
    Скриншоты

    Залил: admiralkz

    Онлайн видео Звёздные войны: Пробуждение силы


    Размер скачиваемого торрента: 2.18 GB (2344916992 Bytes)

    Звёздные войны: Пробуждение силы/Star Wars: Episode VII - The Force Awakens (2015) BDRip | D | Лицензия
    загрузка...
    Рейтинг →
     (голосов: 1, оценка 5/5, голосовать можно 1 раз )

    Другие торренты по теме:

  • Звёздные войны: Роболомка (1999) PC
  • OST - Звёздные войны Эпизод I - III / Star Wars Episode I - III (1999 - 2005) MP3
  • Различные авторы - Звёздные войны (1976-2013) TXT
  • Звёздные войны: Эпизод 4 - Новая надежда / Star Wars: Episode IV - A New Hope (1977) HDRip-AVC от Leo.pard and Scarabey | Лицензия
  • Звёздные войны: Эпизод 5 – Империя наносит ответный удар / Star Wars: Episode V - The Empire Strikes Back (1980) HDRip-AVC от Scarabey | D скачать через торрент бесплатно
  • Звёздные войны: Эпизод 1 – Скрытая угроза / Star Wars: Episode I - The Phantom Menace (1999) HDRip-AVC от Leo.pard and Scarabey | Лицензия скачать через торрент бесплатно
  • Звёздные войны: Эпизод 3 – Месть Ситхов / Star Wars: Episode III - Revenge of the Sith (2005) HDRip-AVC от Leo.pard and Scarabey | Лицензия скачать через торрент бесплатно
  • Звёздные войны: Эпизод 2 – Атака клонов / Star Wars: Episode II - Attack of the Clones (2002) HDRip-AVC от Leo.pard and Scarabey | Лицензия скачать через торрент бесплатно


    • Комментарии (0):

      Информация

      Информация

        Посетители, находящиеся в группе Гости, не могут оставлять комментарии в данной новости.

        ↓ Меню



        ↓ Опрос

        А Вы добавили сайт в закладки?
        Да
        Не


        Top 10 за месяц (Фильмы)