.
Авторизация | Регистрация
Хочешь лучшие торренты? Добавь свой email!
Добавить
» » Крампус / Krampus (2015) BDRemux 1080p от ExKinoRay | Лицензия скачать торрент бесплатно




    Крампус / Krampus (2015) BDRemux 1080p от ExKinoRay | Лицензия скачать торрент бесплатно

    Опубликовал: Админ | Дата: 23-04-2016, 05:00 | Просмотров: 62



    Детально о кино
    Русское название: Крампус
    Русское название в мировом прокате: Krampus
    Создали в: 2015
    Категория жанра: Ужасы, фэнтези, комедия
    Главный режиссер: Майкл Догерти

    Актеры
    Адам Скотт, Тони Коллетт, Дэвид Кёкнер, Эллисон Толман, Кончата Феррелл, Эмджей Энтони, Стефания Оуэн, Криста Штадлер, Марк Аткин, Тревор Пау

    Сюжет фильма

    История о демоне, который во время Рождества выискивает непослушных детей, чтобы наказать их.

    Снималось в: США, Новая Зеландия
    Киностудия: Legendary Pictures, Universal Pictures
    Время просмотра: 01: 37: 40
    Перевод текста: Дублированный | Лицензия
    Файл
    Кодек для видео: MPEG-4
    Качество фильма: BDRemux 1080p
    Информация о видео: 1920x1080, 35.0 Mbit/s, 23976 fps
    Информация о звуке:
    Информация о звуке: 48.0 Khz, AC3, 5.1, 448 Kbps | Дублированный, Лицензия | RUS
    Информация о звуке: 48.0 Khz, DTS-HD MA, 5.1, 3575 Kbps | Оригинал | ENG
    Субтитры: Русские, английские
    Релиз от:
    Автор релиза:
    MI
    Общее
    Уникальный идентификатор : 232544209271119290057087628860358651315 (0xAEF262B6DF4FE960BE6FB5101B43EDB3)
    Полное имя : F: VideoKrampus..2015..BDREMUX.1080p.ExKinoRay.mkv
    Формат : Matroska
    Версия формата : Version 4/Version 2
    Размер файла : 26, 6 Гбайт
    Продолжительность : 1 ч. 37 м.
    Режим общего битрейта : Переменный
    Общий поток : 39, 0 Мбит/сек
    Название фильма : Krampus..2015..BDREMUX.1080p.ExKinoRay
    Дата кодирования : UTC 2016-04-22 12: 07: 23
    Программа кодирования : mkvmerge v8.3.0 (;Over the Horizon;) 64bit
    Библиотека кодирования : libebml v1.3.1 + libmatroska v1.4.2
    Видео
    Идентификатор : 1
    Формат : AVC
    Формат/Информация : Advanced Video Codec
    Профиль формата : High@L4.1
    Параметр CABAC формата : Да
    Параметр ReFrames формата : 4 кадра
    Идентификатор кодека : V_MPEG4/ISO/AVC
    Продолжительность : 1 ч. 37 м.
    Вид битрейта : Переменный
    Битрейт : 35, 0 Мбит/сек
    Максимальный битрейт : 37, 0 Мбит/сек
    Ширина : 1920 пикселей
    Высота : 1080 пикселей
    Соотношение сторон : 16: 9
    Режим частоты кадров : Постоянный
    Частота кадров : 23, 976 (24000/1001) кадра/сек
    Цветовое пространство : YUV
    Субдискретизация насыщенности : 4: 2: 0
    Битовая глубина : 8 бит
    Тип развёртки : Прогрессивная
    Бит/(Пиксели*Кадры) : 0.704
    Размер потока : 23, 9 Гбайт (90%)
    Язык : English
    Default : Нет
    Forced : Нет
    Аудио #1
    Идентификатор : 2
    Формат : AC-3
    Формат/Информация : Audio Coding 3
    Расширение режима : CM (complete main)
    Параметр Endianness формата : Big
    Идентификатор кодека : A_AC3
    Продолжительность : 1 ч. 37 м.
    Вид битрейта : Постоянный
    Битрейт : 448 Кбит/сек
    Каналы : 6 каналов
    Расположение каналов : Front: L C R, Side: L R, LFE
    Частота : 48, 0 КГц
    Частота кадров : 31, 250 кадров/сек (1536 spf)
    Метод сжатия : С потерями
    Размер потока : 313 Мбайт (1%)
    Заголовок : DUB License
    Язык : Russian
    Default : Да
    Forced : Нет
    Аудио #2
    Идентификатор : 3
    Формат : DTS
    Формат/Информация : Digital Theater Systems
    Профиль формата : MA/Core
    Режим : 16
    Параметр Endianness формата : Big
    Идентификатор кодека : A_DTS
    Продолжительность : 1 ч. 37 м.
    Вид битрейта : Переменный/Постоянный
    Битрейт : 3575 Кбит/сек/1509 Кбит/сек
    Каналы : 6 каналов
    Расположение каналов : Front: L C R, Side: L R, LFE
    Частота : 48, 0 КГц
    Частота кадров : 93, 750 кадра/сек (512 spf)
    Битовая глубина : 24 бит
    Метод сжатия : Без потерь/Lossy
    Размер потока : 2, 44 Гбайт (9%)
    Язык : English
    Default : Нет
    Forced : Нет
    Текст #1
    Идентификатор : 4
    Формат : UTF-8
    Идентификатор кодека : S_TEXT/UTF8
    Идентификатор кодека/Информация : UTF-8 Plain Text
    Продолжительность : 1 ч. 30 м.
    Битрейт : 77 бит/сек
    Count of elements : 1124
    Размер потока : 51, 5 Кбайт (0%)
    Язык : Russian
    Default : Нет
    Forced : Нет
    Текст #2
    Идентификатор : 5
    Формат : UTF-8
    Идентификатор кодека : S_TEXT/UTF8
    Идентификатор кодека/Информация : UTF-8 Plain Text
    Продолжительность : 1 ч. 28 м.
    Битрейт : 48 бит/сек
    Count of elements : 958
    Размер потока : 31, 3 Кбайт (0%)
    Язык : English
    Default : Нет
    Forced : Нет
    Меню
    00: 00: 00.000 : en: Chapter 01
    00: 03: 20.700 : en: Chapter 02
    00: 07: 16.686 : en: Chapter 03
    00: 14: 18.065 : en: Chapter 04
    00: 20: 02.576 : en: Chapter 05
    00: 27: 26.603 : en: Chapter 06
    00: 34: 15.845 : en: Chapter 07
    00: 37: 44.303 : en: Chapter 08
    00: 42: 01.393 : en: Chapter 09
    00: 45: 11.959 : en: Chapter 10
    00: 50: 29.860 : en: Chapter 11
    00: 56: 07.030 : en: Chapter 12
    01: 00: 24.245 : en: Chapter 13
    01: 05: 34.931 : en: Chapter 14
    01: 09: 58.944 : en: Chapter 15
    01: 14: 38.515 : en: Chapter 16
    01: 18: 30.080 : en: Chapter 17
    01: 23: 17.659 : en: Chapter 18
    01: 27: 44.801 : en: Chapter 19
    01: 32: 27.750 : en: Chapter 20
    Скриншоты


    Онлайн видео Крампус


    Размер скачиваемого торрента: 26.63 GB (28588408075 Bytes)

    Крампус/Krampus (2015) BDRemux 1080p от ExKinoRay | Лицензия
    загрузка...
    Рейтинг →
     (голосов: 1, оценка 5/5, голосовать можно 1 раз )

    Другие торренты по теме:

  • Крампус / Krampus (2015) WEB-DLRip | iTunes
  • Крампус / Krampus (2015) BDRip-AVC от ExKinoRay | iTunes
  • Крампус / Krampus (2015) Blu-Ray от HDClub | Лицензия
  • Крампус / Krampus (2015) BDRip 1080p | Лицензия
  • Крампус / Krampus (2015)
  • Крампус / Krampus (2015) BDRip от Generalfilm | Лицензия
  • Крампус / Krampus (2015) BDRip-AVC от New-Team | Лицензия


    • Комментарии (0):

      Информация

      Информация

        Посетители, находящиеся в группе Гости, не могут оставлять комментарии в данной новости.

        ↓ Меню



        ↓ Опрос

        А Вы добавили сайт в закладки?
        Да
        Не


        Top 10 за месяц (Фильмы)