.
Авторизация | Регистрация
Хочешь лучшие торренты? Добавь свой email!
Добавить
» » Гордость и предубеждение и зомби / Pride and Prejudice and Zombies (2016) WEBRip | Звук с CAMRip скачать торрент бесплатно




    Гордость и предубеждение и зомби / Pride and Prejudice and Zombies (2016) WEBRip | Звук с CAMRip скачать торрент бесплатно

    Опубликовал: Админ | Дата: 22-04-2016, 12:52 | Просмотров: 53


    Гордость и предубеждение и зомби/Pride and Prejudice and Zombies

    Снималось в: США
    Категория жанра: ужасы, боевик, мелодрама
    Создали в: 2016
    Время просмотра: 01: 42: 46
    Перевод текста: Профессиональный (дублированный) CAMRip
    Субтитры подготовлены: нет
    Оригинальная аудиодорожка: нет
    Главный режиссер: Бёрр Стирс/Burr Steers

    Актеры
    Лили Джеймс, Сэм Райли, Белла Хиткот, Элли Бамбер, Милли Брэйди, Сьюки Уотерхаус, Дуглас Бут, Сэлли Филлипс, Чарльз Дэнс, Джек Хьюстон
    Описание: Элизабет Беннет и ее сестры вынуждены противостоять заполонившим Англию ходячим мертвецам, а мистер Дарси выступает наставником девиц, обучающим их основам выживания.

    Качество фильма видео: WEBRip
    Тип видео видео: AVI
    Информация о видео: MPEG4, XviD, 720x320 (2.25: 1), 25.000 fps, 1 759 Kbps (0.305 bit/pixel)
    Информация о звуке: MP3, 48.0 KHz, 2 ch, 128 Kbps, CBR Звук с CAMRip
    Примечание: Удалены рекламные вставки.
    MediaInfo

    Общее
    Формат : AVI
    Формат/Информация : Audio Video Interleave
    Размер файла : 1, 36 Гбайт
    Продолжительность : 1 ч. 42 м.
    Общий поток : 1897 Кбит/сек
    Библиотека кодирования : VirtualDub build 35576/release
    Видео
    Идентификатор : 0
    Формат : MPEG-4 Visual
    Профиль формата : Advanced Simple@L5
    Параметр BVOP формата : 2
    Параметр QPel формата : Нет
    Параметр GMC формата : Без точки перехода
    Параметр матрицы формата : Default (H.263)
    Режим смешивания : Сжатый битовый поток
    Идентификатор кодека : XVID
    Идентификатор кодека/Подсказка : XviD
    Продолжительность : 1 ч. 42 м.
    Битрейт : 1759 Кбит/сек
    Ширина : 720 пикселей
    Высота : 320 пикселей
    Соотношение сторон : 2, 25: 1
    Частота кадров : 25, 000 кадров/сек
    Цветовое пространство : YUV
    Субдискретизация насыщенности : 4: 2: 0
    Битовая глубина : 8 бит
    Тип развёртки : Прогрессивная
    Метод сжатия : С потерями
    Бит/(Пиксели*Кадры) : 0.305
    Размер потока : 1, 26 Гбайт (93%)
    Библиотека кодирования : XviD 73
    Аудио
    Идентификатор : 1
    Формат : MPEG Audio
    Версия формата : Version 1
    Профиль формата : Layer 3
    Идентификатор кодека : 55
    Идентификатор кодека/Подсказка : MP3
    Продолжительность : 1 ч. 42 м.
    Вид битрейта : Постоянный
    Битрейт : 128 Кбит/сек
    Каналы : 2 канала
    Частота : 48, 0 КГц
    Метод сжатия : С потерями
    Размер потока : 94, 1 Мбайт (7%)
    Выравнивание : Разделение по промежуткам
    Продолжительность промежутка : 40 мс. (1, 00 видеокадр)
    Время предзагрузки промежутка : 500 мс.
    Библиотека кодирования : LAME3.99r
    Залил: nbdjod

    Онлайн видео Гордость и предубеждение и зомби


    Размер скачиваемого торрента: 1.36 GB (1462059504 Bytes)


    Гордость и предубеждение и зомби/Pride and Prejudice and Zombies (2016) WEBRip | Звук с CAMRip
    загрузка...
    Рейтинг →
     (голосов: 1, оценка 5/5, голосовать можно 1 раз )

    Другие торренты по теме:

  • Гордость и предубеждение / Pride and Prejudice (2005) HDTVRip от Scarabey | Open Matte | D
  • OST - Гордость и предубеждение / Pride Prejudice (2005) MP3
  • Гордость и предубеждение / Pride Prejudice (2005) 1080p BDRip от FREEISLAND скачать через торрент бесплатно
  • Гордость и предубеждение / Pride and Prejudice (1995) BDRemux 1080p | P
  • Гордость и предубеждение и зомби (2016)
  • Гордость и предубеждение и зомби / Pride and Prejudice and Zombies (2016) WEBRip | ColdFilm
  • Гордость и предубеждение и зомби / Pride and Prejudice and Zombies (2016)
  • Гордость и предубеждение и зомби / Pride and Prejudice and Zombies (2016) WEB-DL 1080p | L


    • Комментарии (0):

      Информация

      Информация

        Посетители, находящиеся в группе Гости, не могут оставлять комментарии в данной новости.

        ↓ Меню



        ↓ Опрос

        А Вы добавили сайт в закладки?
        Да
        Не


        Top 10 за месяц (Фильмы)