.
Авторизация | Регистрация
Хочешь лучшие торренты? Добавь свой email!
Добавить
» » Виновен вне подозрений / Guilty As Sin (1993) WEB-DL 720p | P2, A скачать торрент бесплатно




    Виновен вне подозрений / Guilty As Sin (1993) WEB-DL 720p | P2, A скачать торрент бесплатно

    Опубликовал: Админ | Дата: 22-04-2016, 05:00 | Просмотров: 72



    Русское название: Виновен вне подозрений
    Русское название в мировом прокате: Guilty As Sin
    Создали в: 1993
    Снималось в: США
    Киностудия: Hollywood Pictures
    Время просмотра: 01: 47: 15
    Категория жанра: Триллер, драма, криминал
    Главный режиссер: Сидни Люмет

    Актеры
    Ребекка Де Морнэй, Дон Джонсон, Стивен Лэнг, Джек Уорден, Дэна Айви, Луис Гузман, Рон Уайт, Норма Делль’Аньезе, Шон МакКэнн, Роберт Кеннеди, ...
    Перевод текста:
    Профессиональный (двуголосый, закадровый) НТВ+
    Профессиональный (двуголосый, закадровый) Видеосервис
    Авторский (одноголосый, закадровый) Гаврилов Андрей Юрьевич

    Сюжет фильма
    Дженнифер — блестящий адвокат, которой удалось спасти не одного невинного человека. Дэвид — мужчина ее мечты, случайно оказавшийся на скамье подсудимых после самоубийства жены. Или не случайно?…

    Кодек для видео: x264
    Качество фильма: WEB-DL 720p
    Информация о видео: 1280x694 , 3962 kbps, 23, 976 fps
    Информация о звуке #1: AC-3, 2 ch, 192 kbps (Rus) - DVO НТВ+
    Информация о звуке #2: AC-3, 2 ch, 192 kbps (Rus) - DVO Видеосервис
    Информация о звуке #3: AC-3, 2 ch, 192 kbps (Rus) - AVO Гаврилов Андрей Юрьевич
    Информация о звуке #4: AC-3, 6 ch, 448 kbps (Eng)
    Субтитры: Английские
    Дополнительная информация
    Сравниваем WEB-DL 720pс DVDRip:




    MediaInfo
    Общее
    Уникальный идентификатор : 221769269769229153722886798356009316624 (0xA6D7352E67DC9D1F94E1FCDD57FDF110)
    Полное имя : Виновен вне подозрений (Guilty As Sin) 1993 WEB-DL 720p.mkv
    Формат : Matroska
    Версия формата : Version 2
    Размер файла : 3, 76 Гбайт
    Продолжительность : 1 ч. 47 м.
    Общий поток : 5022 Кбит/сек
    Дата кодирования : UTC 2016-04-21 15: 25: 57
    Программа кодирования : mkvmerge v4.0.0 (;The Stars were mine;) сборка от Jun 6 2010 16: 18: 42
    Библиотека кодирования : libebml v1.0.0 + libmatroska v1.0.0
    Видео
    Идентификатор : 1
    Формат : AVC
    Формат/Информация : Advanced Video Codec
    Профиль формата : High@L3.1
    Параметр CABAC формата : Нет
    Параметр ReFrames формата : 2 кадра
    Идентификатор кодека : V_MPEG4/ISO/AVC
    Продолжительность : 1 ч. 47 м.
    Битрейт : 3962 Кбит/сек
    Ширина : 1280 пикселей
    Высота : 694 пикселя
    Соотношение сторон : 1, 85: 1
    Режим частоты кадров : Постоянный
    Частота кадров : 23, 976 кадра/сек
    Цветовое пространство : YUV
    Субдискретизация насыщенности : 4: 2: 0
    Битовая глубина : 8 бит
    Тип развёртки : Прогрессивная
    Бит/(Пиксели*Кадры) : 0.186
    Размер потока : 2, 97 Гбайт (79%)
    Язык : English
    Default : Нет
    Forced : Нет
    Цветовой диапазон : Limited
    Основные цвета : BT.709
    Характеристики трансфера : BT.709
    Коэффициенты матрицы : BT.709
    Аудио #1
    Идентификатор : 2
    Формат : AC-3
    Формат/Информация : Audio Coding 3
    Расширение режима : CM (complete main)
    Параметр Endianness формата : Big
    Идентификатор кодека : A_AC3
    Продолжительность : 1 ч. 47 м.
    Вид битрейта : Постоянный
    Битрейт : 192 Кбит/сек
    Каналы : 2 канала
    Расположение каналов : Front: L R
    Частота : 48, 0 КГц
    Метод сжатия : С потерями
    Задержка видео : 4 мс.
    Размер потока : 147 Мбайт (4%)
    Заголовок : DVO НТВ+
    Язык : Russian
    Default : Нет
    Forced : Нет
    Аудио #2
    Идентификатор : 3
    Формат : AC-3
    Формат/Информация : Audio Coding 3
    Расширение режима : CM (complete main)
    Параметр Endianness формата : Big
    Идентификатор кодека : A_AC3
    Продолжительность : 1 ч. 47 м.
    Вид битрейта : Постоянный
    Битрейт : 192 Кбит/сек
    Каналы : 2 канала
    Расположение каналов : Front: L R
    Частота : 48, 0 КГц
    Метод сжатия : С потерями
    Задержка видео : 4 мс.
    Размер потока : 147 Мбайт (4%)
    Заголовок : DVO Видеосервис
    Язык : Russian
    Default : Нет
    Forced : Нет
    Аудио #3
    Идентификатор : 4
    Формат : AC-3
    Формат/Информация : Audio Coding 3
    Расширение режима : CM (complete main)
    Параметр Endianness формата : Big
    Идентификатор кодека : A_AC3
    Продолжительность : 1 ч. 47 м.
    Вид битрейта : Постоянный
    Битрейт : 192 Кбит/сек
    Каналы : 2 канала
    Расположение каналов : Front: L R
    Частота : 48, 0 КГц
    Метод сжатия : С потерями
    Задержка видео : 4 мс.
    Размер потока : 147 Мбайт (4%)
    Заголовок : AVO Гаврилов Андрей Юрьевич
    Язык : Russian
    Default : Нет
    Forced : Нет
    Аудио #4
    Идентификатор : 5
    Формат : AC-3
    Формат/Информация : Audio Coding 3
    Расширение режима : CM (complete main)
    Параметр Endianness формата : Big
    Идентификатор кодека : A_AC3
    Продолжительность : 1 ч. 47 м.
    Вид битрейта : Постоянный
    Битрейт : 384 Кбит/сек
    Каналы : 6 каналов
    Расположение каналов : Front: L C R, Side: L R, LFE
    Частота : 48, 0 КГц
    Метод сжатия : С потерями
    Размер потока : 295 Мбайт (8%)
    Язык : English
    Default : Нет
    Forced : Нет
    Текст
    Идентификатор : 6
    Формат : UTF-8
    Идентификатор кодека : S_TEXT/UTF8
    Идентификатор кодека/Информация : UTF-8 Plain Text
    Язык : English
    Default : Нет
    Forced : Нет



    Залил: seregaanarhist

    Онлайн видео Виновен вне подозрений


    Размер скачиваемого торрента: 3.76 GB (4039889172 Bytes)

    Виновен вне подозрений/Guilty As Sin (1993) WEB-DL 720p | P2, A
    загрузка...
    Рейтинг →
     (голосов: 1, оценка 4/5, голосовать можно 1 раз )

    Другие торренты по теме:

  • Виновен по подозрению / Guilty by Suspicion (1991) WEB-DLRip-AVC от NovaLan | P, A
  • Виновен по подозрению / Guilty by Suspicion (1991) WEB-DLRip | A


    • Комментарии (0):

      Информация

      Информация

        Посетители, находящиеся в группе Гости, не могут оставлять комментарии в данной новости.

        ↓ Меню



        ↓ Опрос

        А Вы добавили сайт в закладки?
        Да
        Не


        Top 10 за месяц (Фильмы)