.
Авторизация | Регистрация
Хочешь лучшие торренты? Добавь свой email!
Добавить
» » Призрак замка Моррисвиль / Fantom Morrisvillu (1966) DVDRip от New-Team | D, P, O, S скачать торрент бесплатно




    Призрак замка Моррисвиль / Fantom Morrisvillu (1966) DVDRip от New-Team | D, P, O, S скачать торрент бесплатно

    Опубликовал: Админ | Дата: 21-04-2016, 05:00 | Просмотров: 76



    Снималось в: Чехословакия
    Создали в: Barrandov
    Категория жанра: комедия
    Создали в: 1966
    Время просмотра: 01: 27: 12
    Перевод текста: Профессиональный (дублированный СССР) , Профессиональный (многоголосый закадровый)
    Субтитры подготовлены: русский
    Оригинальная аудиодорожка: чешский
    Главный режиссер: Борживой Земан/Borivoj Zeman

    Актеры

    Олдржих Новый, Квета Фиалова, Яна Новакова, Вит Олмер, Ярослав Марван, Вальдемар Матушка, Рудольф Дейл мл., Франтишек Филиповский, Лубомир Костелка, Зузана Бурианова, Отто Шиманек, Богус Загорский, Власта Фабианова, Наташа Голлова, Ярослав Хейдук, Ян Скопечек, Мария Гроссова, Владимир Линка, Карел Павлик, Зденек Скалицкий...
    Полный список актёров
    Описание:
    Музыкант симфонического оркестра во время спектакля читает английский детектив. Он настолько увлечен чтением, что забывает обо всем на свете и незаметно перевоплощается в героя читаемой им книги сэра Ганнибала.
    Владелец популярного журнала о светской жизни дает репортеру уголовной хроники Алену Пинкертону весьма странное задание. Честолюбивый красавец должен отправиться в замок Моррисвиль, где состоится бракосочетание сэра Морриса Ганнибала и леди Кларенс Гамильтон.
    Молодой репортер решительно настроен написать хороший материал, и его не пугают даже зловещие угрозы в адрес гостей мероприятия. Наоборот — атмосфера опасности и тайны только подогревает любопытство деятельного журналиста. Детективная интрига приобретает особую остроту, когда из тюрьмы под покровом густого тумана совершает дерзкий побег главарь бандитской шайки Мануэль Диас.
    Обаятельный бандит состоит в шокирующе-близких отношениях с будущей хозяйкой замка, и он намерен использовать это обстоятельство в своих грязных корыстных целях. Мошенник охотится за сокровищами, Призрак охотится за ним, а старинный замок Моррисвиль неохотно раскрывает свои секреты мужественному репортеру с именем и призванием сыщика экстра-класса.



    Источник: DVD5 R5
    Качество фильма видео: DVDRip
    Тип видео видео: AVI
    Информация о видео: 704x528 (4: 3), 25 fps, XviD ~ 1793 kbps avg, 0.193 bit/pixel
    Информация о звуке: 48 kHz, Dolby Digital AC3, 2.0 ch, 192 kbps, русский дубляж
    Информация о звуке: 48 kHz, Dolby Digital AC3, 2.0 ch, 192 kbps, русский MVO
    Информация о звуке: 48 kHz, Dolby Digital AC3, 2.0 ch, 192 kbps, Чешский
    Субтитры: SoftSub (srt)
    Раздача от:
    MediaInfo

    Общее
    Полное имя : Prizrak.zamka.Morrisvil.1966.DVDRip_New-team_by_AVP_Studio.avi
    Формат : AVI
    Формат/Информация : Audio Video Interleave
    Размер файла : 1, 45 Гбайт
    Продолжительность : 1 ч. 27 м.
    Общий поток : 2388 Кбит/сек
    Программа кодирования : VirtualDubModRus 1.5.10.2 (build 2542/release)
    Библиотека кодирования : VirtualDubMod build 2542/release
    Видео
    Идентификатор : 0
    Формат : MPEG-4 Visual
    Профиль формата : Advanced Simple@L5
    Параметр BVOP формата : 1
    Параметр QPel формата : Нет
    Параметр GMC формата : Без точки перехода
    Параметр матрицы формата : Выборочная
    Идентификатор кодека : XVID
    Идентификатор кодека/Подсказка : XviD
    Продолжительность : 1 ч. 27 м.
    Битрейт : 1793 Кбит/сек
    Ширина : 704 пикселя
    Высота : 528 пикселей
    Соотношение сторон : 4: 3
    Частота кадров : 25, 000 кадров/сек
    Цветовое пространство : YUV
    Субдискретизация насыщенности : 4: 2: 0
    Битовая глубина : 8 бит
    Тип развёртки : Прогрессивная
    Метод сжатия : С потерями
    Бит/(Пиксели*Кадры) : 0.193
    Размер потока : 1, 09 Гбайт (75%)
    Библиотека кодирования : XviD 1.2.1 (UTC 2008-12-04)
    Аудио #1
    Идентификатор : 1
    Формат : AC-3
    Формат/Информация : Audio Coding 3
    Расширение режима : CM (complete main)
    Параметр Endianness формата : Big
    Идентификатор кодека : 2000
    Продолжительность : 1 ч. 27 м.
    Вид битрейта : Постоянный
    Битрейт : 192 Кбит/сек
    Каналы : 2 канала
    Расположение каналов : Front: L R
    Частота : 48, 0 КГц
    Частота кадров : 31, 250 кадров/сек (1536 spf)
    Метод сжатия : С потерями
    Размер потока : 120 Мбайт (8%)
    Выравнивание : Разделение по промежуткам
    Продолжительность промежутка : 40 мс. (1, 00 видеокадр)
    Время предзагрузки промежутка : 500 мс.
    Аудио #2
    Идентификатор : 2
    Формат : AC-3
    Формат/Информация : Audio Coding 3
    Расширение режима : CM (complete main)
    Параметр Endianness формата : Big
    Идентификатор кодека : 2000
    Продолжительность : 1 ч. 27 м.
    Вид битрейта : Постоянный
    Битрейт : 192 Кбит/сек
    Каналы : 2 канала
    Расположение каналов : Front: L R
    Частота : 48, 0 КГц
    Частота кадров : 31, 250 кадров/сек (1536 spf)
    Метод сжатия : С потерями
    Размер потока : 120 Мбайт (8%)
    Выравнивание : Разделение по промежуткам
    Продолжительность промежутка : 40 мс. (1, 00 видеокадр)
    Время предзагрузки промежутка : 500 мс.
    Аудио #3
    Идентификатор : 3
    Формат : AC-3
    Формат/Информация : Audio Coding 3
    Расширение режима : CM (complete main)
    Параметр Endianness формата : Big
    Идентификатор кодека : 2000
    Продолжительность : 1 ч. 27 м.
    Вид битрейта : Постоянный
    Битрейт : 192 Кбит/сек
    Каналы : 2 канала
    Расположение каналов : Front: L R
    Частота : 48, 0 КГц
    Частота кадров : 31, 250 кадров/сек (1536 spf)
    Метод сжатия : С потерями
    Размер потока : 120 Мбайт (8%)
    Выравнивание : Разделение по промежуткам
    Продолжительность промежутка : 40 мс. (1, 00 видеокадр)
    Время предзагрузки промежутка : 500 мс

    Скриншоты:



    Залил: AVPStudio

    Онлайн видео Призрак замка Моррисвиль


    Размер скачиваемого торрента: 1.45 GB (1561868406 Bytes)

    Призрак замка Моррисвиль/Fantom Morrisvillu (1966) DVDRip от New-Team | D, P, O, S
    загрузка...
    Рейтинг →
     (голосов: 1, оценка 4/5, голосовать можно 1 раз )

    Другие торренты по теме:

  • Призрак замка Моррисвиль / Fantom Morrisvillu (1966) DVDRip | D P


    • Комментарии (0):

      Информация

      Информация

        Посетители, находящиеся в группе Гости, не могут оставлять комментарии в данной новости.

        ↓ Меню



        ↓ Опрос

        А Вы добавили сайт в закладки?
        Да
        Не


        Top 10 за месяц (Фильмы)