.
Авторизация | Регистрация
Хочешь лучшие торренты? Добавь свой email!
Добавить
» » Большой концерт (1951) DVDRip от New-Team скачать торрент бесплатно




    Большой концерт (1951) DVDRip от New-Team скачать торрент бесплатно

    Опубликовал: Админ | Дата: 20-04-2016, 17:06 | Просмотров: 70



    Снималось в: СССР
    Создали в: Мосфильм
    Категория жанра: биография
    Создали в: 1951
    Время просмотра: 01: 42: 11
    Перевод текста: Не требуется
    Субтитры подготовлены: нет
    Оригинальная аудиодорожка: русский
    Главный режиссер: Вера Строева

    Актеры

    Валерия Барсова, Ксения Держинская, Иван Козловский, Ольга Лепешинская, Максим Михайлов, Александр Пирогов, Марк Рейзен, Галина Уланова, Михаил Габович, Вера Давыдова, Алексей Ермолаев, Мария Максакова (II), Асаф Мессерер, Сергей Мигай, Николай Озеров (II), Марина Семёнова, Сергей Корень, Юрий Кондратов, Василий Макаров, Майя Плисецкая, Владимир Преображенский, Александр Плотников, Александр Радунский, Евгения Смоленская, Георгий Фарманянц, Елена Чикваидзе, Лариса Авдеева, Александр Дегтярь, Мария Звездина, Евгения Ильющенко, Александр Лапаури, Александр Огнивцев, Тихон Черняков, Александр Мелик-Пашаев, Ростислав Захаров, Леонид Лавровский, Юрий Файер, Василий Небольсин, Константин Массалитинов, Игорь Бельский, Николай Голованов, Мария Мордасова, Николай Тимофеев, Иван Руденко (II)...
    Полный список актёров
    Описание:
    В Москву на спектакль Большого театра приезжают колхозники. После спектакля благодарные зрители приглашают артистов театра на празднование двадцатилетнего юбилея колхоза Победа. На празднике почетных гостей восхищает пение молодых колхозников Званцевой и Уфимцева. Осенью они поступают в Московскую консерваторию...



    Источник: DVD5 R5
    Качество фильма видео: DVDRip
    Тип видео видео: AVI
    Информация о видео: 688x512 (4: 3), 25 fps, XviD ~ 1841 kbps avg, 0.209 bit/pixel
    Информация о звуке: 48 kHz, Dolby Digital AC3 2.0, 192 kbps
    Раздача от:
    MediaInfo

    Общее
    Полное имя : Bolshoy.koncert.1951.DVDRip_New-team_by_AVP_Studio.avi
    Формат : AVI
    Формат/Информация : Audio Video Interleave
    Размер файла : 1, 46 Гбайт
    Продолжительность : 1 ч. 42 м.
    Общий поток : 2043 Кбит/сек
    Программа кодирования : VirtualDubMod 1.5.10.3 | www.virtualdub-fr.org || (build 2550/release)
    Библиотека кодирования : VirtualDubMod build 2550/release
    Видео
    Идентификатор : 0
    Формат : MPEG-4 Visual
    Профиль формата : Advanced Simple@L5
    Параметр BVOP формата : 1
    Параметр QPel формата : Нет
    Параметр GMC формата : Без точки перехода
    Параметр матрицы формата : Выборочная
    Идентификатор кодека : XVID
    Идентификатор кодека/Подсказка : XviD
    Продолжительность : 1 ч. 42 м.
    Битрейт : 1841 Кбит/сек
    Ширина : 688 пикселей
    Высота : 512 пикселей
    Соотношение сторон : 4: 3
    Частота кадров : 25, 000 кадров/сек
    Цветовое пространство : YUV
    Субдискретизация насыщенности : 4: 2: 0
    Битовая глубина : 8 бит
    Тип развёртки : Прогрессивная
    Метод сжатия : С потерями
    Бит/(Пиксели*Кадры) : 0.209
    Размер потока : 1, 31 Гбайт (90%)
    Библиотека кодирования : XviD 73
    Аудио
    Идентификатор : 1
    Формат : AC-3
    Формат/Информация : Audio Coding 3
    Расширение режима : CM (complete main)
    Параметр Endianness формата : Big
    Идентификатор кодека : 2000
    Продолжительность : 1 ч. 42 м.
    Вид битрейта : Постоянный
    Битрейт : 192 Кбит/сек
    Каналы : 2 канала
    Расположение каналов : Front: L R
    Частота : 48, 0 КГц
    Метод сжатия : С потерями
    Размер потока : 140 Мбайт (9%)
    Выравнивание : Разделение по промежуткам
    Продолжительность промежутка : 40 мс. (1, 00 видеокадр)
    Время предзагрузки промежутка : 500 мс

    Скриншоты



    Залил: AVPStudio

    Онлайн видео Большой концерт (1951) DVDRip от New


    Размер скачиваемого торрента: 1.46 GB (1565663232 Bytes)

    Большой концерт (1951) DVDRip от New-Team
    загрузка...
    Рейтинг →
     (голосов: 1, оценка 3/5, голосовать можно 1 раз )

    Другие торренты по теме:

  • Большой концерт Анны Нетребко и Дмитрия Хворостовского на Красной площади (2013) DVB от Mydimka
  • Большой концерт Анны Нетребко и Дмитрия Хворостовского на Красной площади (2013) SATRip
  • Ёлка. Большой концерт (2014) HDTV 1080p
  • Баста - Большой концерт в Крокус Сити Холл (2012) WEBRip 720p от Hitway / Sinemaplaneta
  • Баста. Большой концерт в Олимпийском.Ч.2 (2015) WEBRip 720p
  • Большой концерт (1951) DVDRip от New-Team
  • Две звезды. Большой Новогодний концерт (2013) SATRip
  • Две звезды. Большой Новогодний концерт (2013) HDTV 1080i


    • Комментарии (0):

      Информация

      Информация

        Посетители, находящиеся в группе Гости, не могут оставлять комментарии в данной новости.

        ↓ Меню



        ↓ Опрос

        А Вы добавили сайт в закладки?
        Да
        Не


        Top 10 за месяц (Фильмы)