.
Авторизация | Регистрация
Хочешь лучшие торренты? Добавь свой email!
Добавить




На дне (1952) DVDRip от New-Team скачать торрент бесплатно

Опубликовал: Админ | Дата: 19-04-2016, 11:32 | Просмотров: 74



Снималось в: СССР
Создали в: Мосфильм
Категория жанра: драма
Создали в: 1952
Время просмотра: 02: 31: 49 (01: 17: 46 + 01: 14: 03)
Перевод текста: Не требуется
Субтитры подготовлены: нет
Оригинальная аудиодорожка: русский
Главный режиссер: Андрей Фролов

Актеры

Иосиф Раевский, Фаина Шевченко, Кира Головко, Владимир Готовцев, Сергей Яров, Алексей Жильцов, Нина Тихомирова, Алла Тарасова, Анна Дмоховская, Сергей Блинников, Владимир Ершов, Павел Массальский, Алексей Грибов, Василий Орлов, Григорий Конский, Николай Хощанов, Владимир Баталов...
Полный список актёров
Описание:
Фильм-спектакль, драма по одноименной пьесе М.Горького.
Постановка МХАТ им. М.Горького. Режиссеры-постановщики: К.С.Станиславский, В.И.Немирович-Данченко. Художник — Владимир Симов.
Мрачно и уныло протекают дни обитателей одной из ночлежек - пристанища обездоленных и униженных. Но в людях, чье существование служит страшным обвинением обществу, их породившему, сохранилось человеческое достоинство. Зреет протест против власти равнодушных. В мрачной атмосфере ночлежки звучит вдохновенный гимн Человеку, его силе и красоте.



Источник: DVD9 R5
Качество фильма видео: DVDRip
Тип видео видео: AVI
Информация о видео: 640x480 (4: 3), 25 fps, XviD ~ 1238 kbps avg, 0.161 bit/pixel
Информация о звуке: 48 kHz, MP3 2.0, 128 kbps
Раздача от:
MediaInfo

Общее
Полное имя : Na.dne.1952.DVDRip-1, 46_New-team_by_AVP_Studio1.avi
Формат : AVI
Формат/Информация : Audio Video Interleave
Размер файла : 765 Мбайт
Продолжительность : 1 ч. 17 м.
Общий поток : 1376 Кбит/сек
Программа кодирования : VirtualDubMod 1.5.10.3 | www.virtualdub-fr.org || (build 2550/release)
Библиотека кодирования : VirtualDubMod build 2550/release
Видео
Идентификатор : 0
Формат : MPEG-4 Visual
Профиль формата : Advanced Simple@L5
Параметр BVOP формата : 1
Параметр QPel формата : Нет
Параметр GMC формата : Без точки перехода
Параметр матрицы формата : Выборочная
Идентификатор кодека : XVID
Идентификатор кодека/Подсказка : XviD
Продолжительность : 1 ч. 17 м.
Битрейт : 1238 Кбит/сек
Ширина : 640 пикселей
Высота : 480 пикселей
Соотношение сторон : 4: 3
Частота кадров : 25, 000 кадров/сек
Цветовое пространство : YUV
Субдискретизация насыщенности : 4: 2: 0
Битовая глубина : 8 бит
Тип развёртки : Прогрессивная
Метод сжатия : С потерями
Бит/(Пиксели*Кадры) : 0.161
Размер потока : 689 Мбайт (90%)
Библиотека кодирования : XviD 1.2.1 (UTC 2008-12-04)
Аудио
Идентификатор : 1
Формат : MPEG Audio
Версия формата : Version 1
Профиль формата : Layer 3
Идентификатор кодека : 55
Идентификатор кодека/Подсказка : MP3
Продолжительность : 1 ч. 17 м.
Вид битрейта : Постоянный
Битрейт : 128 Кбит/сек
Каналы : 2 канала
Частота : 48, 0 КГц
Метод сжатия : С потерями
Размер потока : 71, 2 Мбайт (9%)
Выравнивание : Соединение по промежуткам
Продолжительность промежутка : 40 мс. (1, 00 видеокадр)
Время предзагрузки промежутка : 504 мс.
Библиотека кодирования : LAME3.99r
Залил: AVPStudio

Онлайн видео На дне (1952) DVDRip от New


Размер скачиваемого торрента: 1.46 GB (1566375936 Bytes)


На дне (1952) DVDRip от New-Team
загрузка...
Рейтинг →
 (голосов: 1, оценка 3/5, голосовать можно 1 раз )

Другие торренты по теме:

  • Белые ночи (1959) DVDRip-AVC от New-Team
  • Белые ночи (1959) DVDRip от New-Team
  • Как поссорился Иван Иванович с Иваном Никифоровичем (1959) DVDRip-AVC от New-Team
  • Как поссорился Иван Иванович с Иваном Никифоровичем (1959) DVDRip от New-Team
  • Хардбол / Hardball (2001) DVDRip-AVC от New-Team
  • Берлин (1945) DVDRip от New-Team
  • Обыкновенный фашизм (1965) DVDRip-AVC от New-Team
  • Секретарь райкома (1942) DVDRip-AVC от New-Team


    • Комментарии (0):

      Информация

      Информация

        Посетители, находящиеся в группе Гости, не могут оставлять комментарии в данной новости.

        ↓ Меню



        ↓ Опрос

        А Вы добавили сайт в закладки?
        Да
        Не


        Top 10 за месяц (Фильмы)