.
Авторизация | Регистрация
Хочешь лучшие торренты? Добавь свой email!
Добавить
» » Моцзинь: Забытая легенда / Mojin: The Lost Legend (2015) HDRip | IMAX | L2 скачать торрент бесплатно




    Моцзинь: Забытая легенда / Mojin: The Lost Legend (2015) HDRip | IMAX | L2 скачать торрент бесплатно

    Опубликовал: Админ | Дата: 13-04-2016, 05:00 | Просмотров: 124



    Детально о кино
    Русское название: Моцзинь: Забытая легенда
    Русское название в мировом прокате: Mojin: The Lost Legend
    Создали в: 2015
    Категория жанра: приключения, ужасы, экшн
    Главный режиссер: Вуершан/Wuershan

    Актеры
    Шу Ци, Чэнь Кунь, Хуан Бо, Анжела Бейби, Ся Юй, Лю Сяоцин, Черри Нган и др.


    Сюжет фильма

    Бывший солдат Ху вместе с напарником промышляет расхищением гробниц. Он навлекает на себя ужасное проклятие и, чтобы освободиться, пускается в путешествие по мистическим местам Китая и Тибета в поисках разгадок древних тайн.
    Снималось в: Китай
    Время просмотра: 02: 04: 45
    Перевод текста: Любительский (двухголосый закадровый) | Ворон и Sandairina
    Файл
    Кодек для видео: XviD
    Качество фильма: HDRip
    Информация о видео: MPEG4, XviD, 720x390 (1.85: 1), 24.000 fps, 2 297 Kbps (0.341 bit/pixel)
    Информация о звуке: AC-3, 48.0 KHz, 6 ch, 448 Kbps, CBR
    Скриншоты
    MediaInfo
    Общее
    Полное имя : Mojin.The.Lost.Legend.2015.L2.avi
    Формат : AVI
    Формат/Информация : Audio Video Interleave
    Профиль формата : OpenDML
    Размер файла : 2, 40 Гбайт
    Продолжительность : 2 ч. 4 м.
    Общий поток : 2756 Кбит/сек
    Программа кодирования : VirtualDubModRus 1.5.10.2 (build 2542/release)
    Библиотека кодирования : VirtualDubMod build 2542/release
    Видео
    Идентификатор : 0
    Формат : MPEG-4 Visual
    Профиль формата : Advanced Simple@L5
    Параметр BVOP формата : Да
    Параметр QPel формата : Нет
    Параметр GMC формата : Без точки перехода
    Параметр матрицы формата : Default (H.263)
    Идентификатор кодека : XVID
    Идентификатор кодека/Подсказка : XviD
    Продолжительность : 2 ч. 4 м.
    Битрейт : 2297 Кбит/сек
    Ширина : 720 пикселей
    Высота : 390 пикселей
    Соотношение сторон : 1, 85: 1
    Частота кадров : 24, 000 кадра/сек
    Цветовое пространство : YUV
    Субдискретизация насыщенности : 4: 2: 0
    Битовая глубина : 8 бит
    Тип развёртки : Прогрессивная
    Метод сжатия : С потерями
    Бит/(Пиксели*Кадры) : 0.341
    Размер потока : 2, 00 Гбайт (83%)
    Библиотека кодирования : XviD 64
    Аудио
    Идентификатор : 1
    Формат : AC-3
    Формат/Информация : Audio Coding 3
    Расширение режима : CM (complete main)
    Параметр Endianness формата : Big
    Идентификатор кодека : 2000
    Продолжительность : 2 ч. 4 м.
    Вид битрейта : Постоянный
    Битрейт : 448 Кбит/сек
    Каналы : 6 каналов
    Расположение каналов : Front: L C R, Side: L R, LFE
    Частота : 48, 0 КГц
    Частота кадров : 31, 250 кадров/сек (1536 spf)
    Метод сжатия : С потерями
    Размер потока : 400 Мбайт (16%)
    Выравнивание : Разделение по промежуткам
    Продолжительность промежутка : 42 мс. (1, 00 видеокадр)
    Время предзагрузки промежутка : 500 мс.

    Залил: KomputerniySpec

    Онлайн видео Моцзинь: Забытая легенда


    Размер скачиваемого торрента: 2.40 GB (2578962432 Bytes)

    Моцзинь: Забытая легенда/Mojin: The Lost Legend (2015) HDRip | IMAX | L2
    загрузка...
    Рейтинг →
     (голосов: 1, оценка 3/5, голосовать можно 1 раз )

    Другие торренты по теме:

  • Моцзинь: Забытая легенда / Mojin: The Lost Legend (2015) BDRip 1080p | IMAX | L2
  • Моцзинь: Забытая легенда / Mojin: The Lost Legend (2015) HDRip от KinoHitHD | КПК | L2


    • Комментарии (0):

      Информация

      Информация

        Посетители, находящиеся в группе Гости, не могут оставлять комментарии в данной новости.

        ↓ Меню



        ↓ Опрос

        А Вы добавили сайт в закладки?
        Да
        Не


        Top 10 за месяц (Фильмы)