.
Авторизация | Регистрация
Хочешь лучшие торренты? Добавь свой email!
Добавить
» » Жить нагишом: в поисках потерянного рая / Vivre Nu. La Recherche du Paradis Perdu (1993) DVDRip | L1 скачать торрент бесплатно




    Жить нагишом: в поисках потерянного рая / Vivre Nu. La Recherche du Paradis Perdu (1993) DVDRip | L1 скачать торрент бесплатно

    Опубликовал: Админ | Дата: 12-04-2016, 05:00 | Просмотров: 241



    Русское название: Жить нагишом: в поисках потерянного рая
    Русское название в мировом прокате: Vivre Nu. la Recherche du Paradis Perdu
    Создали в: 1993
    Снималось в: Франция
    Категория жанра: Документальный, познавательный, натуризм
    Главный режиссер: Роберт Сэлис/Robert Salis
    Время просмотра: 01: 42: 25
    Перевод текста: Любительский одноголосый закадровый

    Сюжет фильма

    Красочный документальный фильм о философии натуризма, о истории натуризма во Франции и во всем мире. В этом документальном фильме показана жизнь людей получающих удовольствие от собственной наготы и гармонии с природой.
    Очень много красивых кадров, снятых со вкусом и стилем, где мужчины и женщины проводят время на фоне прекрасных видов природных ландшафтов Франции.

    Качество фильма: DVDRip
    Информация о видео: 700x420 (1.67: 1), 25 fps, XviD build 65 ~1573 kbps avg, 0.21 bit/pixe
    Информация о звуке:
    Аудио 1: 48 kHz, MPEG Layer 3, 2 ch, ~128.00 kbps avg (Русский)
    Аудио 2: 48 kHz, MPEG Layer 3, 2 ch, ~128.00 kbps avg (Французский)
    Субтитры: softsub (SRT), ass
    Доп. информация о субтитрах: Русские внешние (Роман Слободянюк)
    Сэмпл: http://multi-up.com/1093414
    MediaInfo
    Общее
    Полное имя : F: С моей озвучкойЖить нагишомVivre Nu.avi
    Формат : AVI
    Формат/Информация : Audio Video Interleave
    Размер файла : 1, 32 Гбайт
    Продолжительность : 1 ч. 42 м.
    Общий поток : 1845 Кбит/сек
    Программа кодирования : VirtualDubModRus 1.5.10.2 (build 2542/release)
    Библиотека кодирования : VirtualDubMod build 2542/release
    Видео
    Идентификатор : 0
    Формат : xvid
    Идентификатор кодека : xvid
    Продолжительность : 1 ч. 42 м.
    Битрейт : 1575 Кбит/сек
    Ширина : 700 пикселей
    Высота : 420 пикселей
    Соотношение сторон : 1, 667
    Частота кадров : 25, 000 кадров/сек
    Бит/(Пиксели*Кадры) : 0.214
    Размер потока : 1, 13 Гбайт (85%)
    Аудио #1
    Идентификатор : 1
    Формат : MPEG Audio
    Версия формата : Version 1
    Профиль формата : Layer 3
    Режим : Joint stereo
    Расширение режима : MS Stereo
    Идентификатор кодека : 55
    Идентификатор кодека/Подсказка : MP3
    Продолжительность : 1 ч. 42 м.
    Вид битрейта : Постоянный
    Битрейт : 128 Кбит/сек
    Каналы : 2 канала
    Частота : 48, 0 КГц
    Метод сжатия : С потерями
    Размер потока : 93, 8 Мбайт (7%)
    Выравнивание : Соединение по промежуткам
    Продолжительность промежутка : 40 мс. (1, 00 видеокадр)
    Время предзагрузки промежутка : 504 мс.
    Библиотека кодирования : LAME3.96
    Аудио #2
    Идентификатор : 2
    Формат : MPEG Audio
    Версия формата : Version 1
    Профиль формата : Layer 3
    Режим : Joint stereo
    Расширение режима : MS Stereo
    Идентификатор кодека : 55
    Идентификатор кодека/Подсказка : MP3
    Продолжительность : 1 ч. 42 м.
    Вид битрейта : Постоянный
    Битрейт : 128 Кбит/сек
    Каналы : 2 канала
    Частота : 48, 0 КГц
    Метод сжатия : С потерями
    Размер потока : 93, 8 Мбайт (7%)
    Выравнивание : Соединение по промежуткам
    Продолжительность промежутка : 40 мс. (1, 00 видеокадр)
    Время предзагрузки промежутка : 504 мс.
    Библиотека кодирования : LAME3.98

    Альтернативные полноразмерные скриншоты

    Залил: Fantagro

    Онлайн видео Жить нагишом: в поисках потерянного рая


    Размер скачиваемого торрента: 1.32 GB (1417663468 Bytes)

    Жить нагишом: в поисках потерянного рая/Vivre Nu. La Recherche du Paradis Perdu (1993) DVDRip | L1
    загрузка...
    Рейтинг →
     (голосов: 1, оценка 3/5, голосовать можно 1 раз )

    Другие торренты по теме:

  • Колизей - Жить, чтобы жить (2013) MP3
  • Жить, чтобы жить / Vivre pour vivre (1967) DVDRip | P, Sub
  • Проект #ЖИТЬ - #ЖИТЬ (2016) WEBRip | 7turza
  • Дмитрий Семеник, Михаил Хасьминский - Выход есть! (суицид, как быть, если не хочется жить) (2010) PDF, DjVu, DOC, FB2
  • Воскресение - Научи меня жить (2001 / 2004) DVDRip-AVC
  • Дельфин - Я буду жить (2000) DVDRip
  • Дельфин - Я буду жить 4 клипа (2000) DVDRip
  • Зачем жить, зачем умирать / A reason to live a reason to die (1972) DVD-9


    • Комментарии (0):

      Информация

      Информация

        Посетители, находящиеся в группе Гости, не могут оставлять комментарии в данной новости.

        ↓ Меню



        ↓ Опрос

        А Вы добавили сайт в закладки?
        Да
        Не


        Top 10 за месяц (Фильмы)