.
Авторизация | Регистрация
Хочешь лучшие торренты? Добавь свой email!
Добавить
» » Наш бренд – кризис / Our Brand Is Crisis (2015) HDRip-AVC от NNMClub | A, L2 скачать торрент бесплатно




    Наш бренд – кризис / Our Brand Is Crisis (2015) HDRip-AVC от NNMClub | A, L2 скачать торрент бесплатно

    Опубликовал: Админ | Дата: 8-04-2016, 05:00 | Просмотров: 74



    Создали в: США
    Категория жанра: Драма, комедия
    Главный режиссер: Дэвид Гордон Грин
    Актеры: Сандра Баллок, Билли Боб Торнтон, Энтони Маки, Жоаким ди Алмейда, Энн Дауд, Скут МакНэри, Зои Казан, Стивен Флорес, Рейнальдо Пачеко, Луис Арселла, Октавио Гомез, Луис Чавес, Нина Леон...

    Описание фильма

    Фильм, основанный на документальных съемках, покажет изнанку избирательной кампании 2002 года, когда кандидат в президенты Боливии Гонсало Санчес де Лосада нанял политтехнологов из консалтинговой фирмы Greenberg Quinlan Rosner, чтобы прийти к победе.

    Дата мировой премьеры: 11 сентября 2015
    Рейтинг MPAA: R(лицам до 17 лет обязательно присутствие взрослого)
    Релиз подготовил: K.E.N(NNM-CLUB)
    Время просмотра: 01: 47: 31
    Качество фильма видео: HDRip-AVC Сэмпл
    Перевод текста: Авторский одноголосый(А.Дольский) , любительский двухголосый(Parovoz Production)
    Субтитры: Отсутствуют
    Информация о видео: AVC, 1024x576 (16: 9), 23.976 fps, 1 999 Kbps (0.141 bit/pixel)
    Информация о звуке #1: AC-3, 48.0 KHz, 6 ch, 448 Kbps, CBR (Russian) - авторский
    Информация о звуке #2: AC-3, 48.0 KHz, 2 ch, 192 Kbps, CBR (Russian) - двухголосый
    Информация о звуке #3: AC-3, 48.0 KHz, 6 ch, 448 Kbps, CBR (English) - оригинал
    MediaInfo:
    codeФормат : Matroska
    Версия формата : Version 2
    Размер файла : 2, 32 Гбайт
    Продолжительность : 1 ч. 47 м.
    Общий поток : 3088 Кбит/сек
    Название фильма : Our Brand Is Crisis. 2015
    Дата кодирования : UTC 2016-04-07 09: 33: 55
    Программа кодирования : mkvmerge v5.3.0 (;I could have danced;) built on Feb 9 2012 10: 38: 07
    Библиотека кодирования : libebml v1.2.3 + libmatroska v1.3.0
    Attachment : Yes
    Видео
    Идентификатор : 1
    Формат : AVC
    Формат/Информация : Advanced Video Codec
    Профиль формата : High@L4.1
    Параметр CABAC формата : Да
    Параметр ReFrames формата : 9 кадров
    Идентификатор кодека : V_MPEG4/ISO/AVC
    Продолжительность : 1 ч. 47 м.
    Битрейт : 1999 Кбит/сек
    Ширина : 1024 пикселя
    Высота : 576 пикселей
    Соотношение сторон : 16: 9
    Режим частоты кадров : Постоянный
    Частота кадров : 23, 976 кадра/сек
    Цветовое пространство : YUV
    Субдискретизация насыщенности : 4: 2: 0
    Битовая глубина : 8 бит
    Тип развёртки : Прогрессивная
    Бит/(Пиксели*Кадры) : 0.141
    Размер потока : 1, 46 Гбайт (63%)
    Заголовок : Our Brand Is Crisis. 2015
    Библиотека кодирования : x264 core 148 r2597M e86f3a1
    Настройки программы : cabac=1/ref=9/deblock=1: -3: -3/analyse=0x3: 0x133/me=umh/subme=10/psy=0/mixed_ref=0/me_range=32/chroma_me=1/trellis=2/8x8dct=1/cqm=0/deadzone=21, 11/fast_pskip=0/chroma_qp_offset=0/threads=12/lookahead_threads=2/sliced_threads=0/nr=0/decimate=0/interlaced=0/bluray_compat=0/constrained_intra=0/bframes=7/b_pyramid=2/b_adapt=2/b_bias=0/direct=3/weightb=1/open_gop=0/weightp=0/keyint=240/keyint_min=23/scenecut=40/intra_refresh=0/rc=2pass/mbtree=0/bitrate=1999/ratetol=1.0/qcomp=0.60/qpmin=0/qpmax=69/qpstep=4/cplxblur=20.0/qblur=0.5/ip_ratio=1.40/pb_ratio=1.30/aq=1: 0.80
    Язык : English
    Default : Да
    Forced : Да
    Аудио #1
    Идентификатор : 2
    Формат : AC-3
    Формат/Информация : Audio Coding 3
    Расширение режима : CM (complete main)
    Параметр Endianness формата : Big
    Идентификатор кодека : A_AC3
    Продолжительность : 1 ч. 47 м.
    Вид битрейта : Постоянный
    Битрейт : 448 Кбит/сек
    Каналы : 6 каналов
    Расположение каналов : Front: L C R, Side: L R, LFE
    Частота : 48, 0 КГц
    Битовая глубина : 16 бит
    Метод сжатия : С потерями
    Размер потока : 345 Мбайт (15%)
    Заголовок : Дольский
    Язык : Russian
    Default : Да
    Forced : Нет
    Аудио #2
    Идентификатор : 3
    Формат : AC-3
    Формат/Информация : Audio Coding 3
    Расширение режима : CM (complete main)
    Параметр Endianness формата : Big
    Идентификатор кодека : A_AC3
    Продолжительность : 1 ч. 47 м.
    Вид битрейта : Постоянный
    Битрейт : 192 Кбит/сек
    Каналы : 2 канала
    Расположение каналов : Front: L R
    Частота : 48, 0 КГц
    Битовая глубина : 16 бит
    Метод сжатия : С потерями
    Размер потока : 148 Мбайт (6%)
    Заголовок : Двухголосый
    Язык : Russian
    Default : Нет
    Forced : Нет
    Аудио #3
    Идентификатор : 4
    Формат : AC-3
    Формат/Информация : Audio Coding 3
    Расширение режима : CM (complete main)
    Параметр Endianness формата : Big
    Идентификатор кодека : A_AC3
    Продолжительность : 1 ч. 47 м.
    Вид битрейта : Постоянный
    Битрейт : 448 Кбит/сек
    Каналы : 6 каналов
    Расположение каналов : Front: L C R, Side: L R, LFE
    Частота : 48, 0 КГц
    Битовая глубина : 16 бит
    Метод сжатия : С потерями
    Размер потока : 345 Мбайт (15%)
    Язык : English
    Default : Нет
    Forced : Нет
    Меню
    00: 00: 00.000 : : 00: 00: 00.000
    00: 10: 17.325 : : 00: 10: 17.325
    00: 19: 28.876 : : 00: 19: 28.876
    00: 27: 24.017 : : 00: 27: 24.017
    00: 39: 09.722 : : 00: 39: 09.722
    00: 49: 43.272 : : 00: 49: 43.272
    00: 59: 40.285 : : 00: 59: 40.285
    01: 11: 33.206 : : 01: 11: 33.206
    01: 22: 37.202 : : 01: 22: 37.202
    01: 29: 39.165 : : 01: 29: 39.165
    01: 32: 20.285 : : 01: 32: 20.285
    01: 39: 43.978 : : 01: 39: 43.978

    Скриншоты:


    Онлайн видео Наш бренд – кризис


    Размер скачиваемого торрента: 2.32 GB (2491324820 Bytes)

    Наш бренд – кризис/Our Brand Is Crisis (2015) HDRip-AVC от NNMClub | A, L2
    загрузка...
    Рейтинг →
     (голосов: 1, оценка 3/5, голосовать можно 1 раз )

    Другие торренты по теме:

  • Наш бренд – кризис / Our Brand Is Crisis (2015) HDRip от torrentfilm | L2, А
  • Наш бренд – кризис / Our Brand Is Crisis (2015) BDRip 1080р | А
  • Наш бренд – кризис / Our Brand Is Crisis (2015) HDRip | A


    • Комментарии (0):

      Информация

      Информация

        Посетители, находящиеся в группе Гости, не могут оставлять комментарии в данной новости.

        ↓ Меню



        ↓ Опрос

        А Вы добавили сайт в закладки?
        Да
        Не


        Top 10 за месяц (Фильмы)