.
Авторизация | Регистрация
Хочешь лучшие торренты? Добавь свой email!
Добавить
» » Девушка на фотографиях / The Girl in the Photographs (2015) WEB-DL 720p | L2 скачать торрент бесплатно




    Девушка на фотографиях / The Girl in the Photographs (2015) WEB-DL 720p | L2 скачать торрент бесплатно

    Опубликовал: Админ | Дата: 7-04-2016, 13:23 | Просмотров: 63



    Детально о кино
    Русское название: Девушка на фотографиях
    Русское название в мировом прокате: The Girl in the Photographs
    Создали в: 2015
    Категория жанра: ужасы, триллер, криминал
    Главный режиссер: Ник Саймон

    Актеры
    Кэл Пенн, Клаудия Ли, Кенни Вормолд, Тоби Хемингуэй, Миранда Рэй Майо, Кори Шмитт, Oliver Seitz, Autumn Kendrick, Эва Борн, Кэтрин Изабель

    Сюжет фильма
    Скучающая молодая женщина из сонного сообщества, под названием Спирфиш, начинает получать фотографии, на которых запечатлены тела зверски убитых женщин. Являются ли они реальными или это просто подделка? Отправителем может оказаться либо серийный убийца, либо урод с больным чувством юмора.


    Снималось в: США, Канада/Alghanim Entertainment
    Время просмотра: 01: 38: 15
    Тип перевода: Любительское (двухголосое) Parovoz Production
    Примечание: Релиз без рекламы.
    Файл
    Тип видео: MKV
    Качество фильма: WEB-DL 720p
    Информация о видео: MPEG-4 AVC, 4022 kb/s, 1280x528
    Информация о звуке: Russian: AC3, 192 kb/s (2 ch)/English: AC3, 384 kb/s (6 ch)
    Субтитры: English
    MI

    Format : Matroska
    Format version : Version 2
    File size : 3.22 GiB
    Duration : 1h 38mn
    Overall bit rate : 4 692 Kbps
    Encoded date : UTC 2016-04-06 07: 46: 59
    Writing application : mkvmerge v7.8.0 (;River Man;) 32bit built on Apr 3 2015 12: 11: 22
    Writing library : libebml v1.3.1 + libmatroska v1.4.2
    Video
    ID : 1
    Format : AVC
    Format/Info : Advanced Video Codec
    Format profile : Main@L3.1
    Format settings, CABAC : No
    Format settings, ReFrames : 2 frames
    Codec ID : V_MPEG4/ISO/AVC
    Duration : 1h 38mn
    Bit rate : 4 022 Kbps
    Width : 1 280 pixels
    Height : 528 pixels
    Display aspect ratio : 2.40: 1
    Frame rate mode : Constant
    Frame rate : 23.976 fps
    Color space : YUV
    Chroma subsampling : 4: 2: 0
    Bit depth : 8 bits
    Scan type : Progressive
    Bits/(Pixel*Frame) : 0.248
    Stream size : 2.76 GiB (86%)
    Language : English
    Default : Yes
    Forced : No
    Color range : Limited
    Color primaries : BT.709
    Transfer characteristics : BT.709
    Matrix coefficients : BT.709
    Audio #1
    ID : 2
    Format : AC-3
    Format/Info : Audio Coding 3
    Mode extension : CM (complete main)
    Format settings, Endianness : Big
    Codec ID : A_AC3
    Duration : 1h 38mn
    Bit rate mode : Constant
    Bit rate : 192 Kbps
    Channel(s) : 2 channels
    Channel positions : Front: L R
    Sampling rate : 48.0 KHz
    Bit depth : 16 bits
    Compression mode : Lossy
    Stream size : 135 MiB (4%)
    Language : Russian
    Default : Yes
    Forced : No
    Audio #2
    ID : 3
    Format : AC-3
    Format/Info : Audio Coding 3
    Mode extension : CM (complete main)
    Format settings, Endianness : Big
    Codec ID : A_AC3
    Duration : 1h 38mn
    Bit rate mode : Constant
    Bit rate : 384 Kbps
    Channel(s) : 6 channels
    Channel positions : Front: L C R, Side: L R, LFE
    Sampling rate : 48.0 KHz
    Bit depth : 16 bits
    Compression mode : Lossy
    Stream size : 270 MiB (8%)
    Language : English
    Default : No
    Forced : No
    Text
    ID : 4
    Format : UTF-8
    Codec ID : S_TEXT/UTF8
    Codec ID/Info : UTF-8 Plain Text
    Language : English
    Default : No
    Forced : No
    Menu
    00: 00: 00.000 : en: Opening Sequence
    00: 05: 24.000 : en: A Graphic Depiction
    00: 11: 54.000 : en: A Nod To Me
    00: 17: 52.000 : en: Our Fascination With Death
    00: 24: 06.000 : en: The Local Scene
    00: 29: 58.000 : en: A Bad Picture
    00: 35: 51.000 : en: A Party Tonight
    00: 42: 18.000 : en: Petty Resentment
    00: 48: 15.000 : en: Pretty Townie Chick
    00: 55: 44.000 : en: A Much Better Option
    01: 02: 09.000 : en: I;m Leaving Town
    01: 07: 51.000 : en: I Look Pissed
    01: 13: 56.000 : en: I Wanted To Talk
    01: 19: 47.000 : en: Great Pictures
    01: 24: 10.000 : en: Your Big Moment
    01: 32: 43.000 : en: End Credits
    Скриншоты






    Онлайн видео Девушка на фотографиях


    Размер скачиваемого торрента: 3.22 GB (3457609834 Bytes)

    Девушка на фотографиях/The Girl in the Photographs (2015) WEB-DL 720p | L2
    загрузка...
    Рейтинг →
     (голосов: 1, оценка 4/5, голосовать можно 1 раз )

    Другие торренты по теме:

  • Девушка с глазами цвета неба (2017) WEBRip от GeneralFilm
  • Девушка с глазами цвета неба (2017) WEB-DL 1080p от OlLanDGroup
  • Не та девушка / The wrong girl (2017) PDTVRip-AVC
  • Девушка, разрезанная надвое / Одна девушка на двоих / La fille coupe en deux (2007) DVDRip скачать через торрент бесплатно
  • Злата Моравкова - суперпластичная девушка / Zlata (2009-2011) BDRip
  • Девушка с татуировкой дракона / Man som hatar kvinnor (2009) BDRip 720p от R.G. GoldenShara | Лицензия
  • Девушка напротив / The Girl Next Door (2007) BDRip-AVC
  • Девушка из воды / Lady in the Water (2006) HD-DVDRip 1080p


    • Комментарии (0):

      Информация

      Информация

        Посетители, находящиеся в группе Гости, не могут оставлять комментарии в данной новости.

        ↓ Меню



        ↓ Опрос

        А Вы добавили сайт в закладки?
        Да
        Не


        Top 10 за месяц (Фильмы)