.
Авторизация | Регистрация
Хочешь лучшие торренты? Добавь свой email!
Добавить
» » Комиссар полиции Мартин Бек / Beck (2015) HDTVRip от ExKinoRay | L1 скачать торрент бесплатно




    Комиссар полиции Мартин Бек / Beck (2015) HDTVRip от ExKinoRay | L1 скачать торрент бесплатно

    Опубликовал: Админ | Дата: 6-04-2016, 16:15 | Просмотров: 238



    Детально о кино
    Русское название: Комиссар полиции Мартин Бек (Мартин Бек)
    Русское название в мировом прокате: Beck
    Создали в: 2015
    Категория жанра: Триллер, криминал, детектив
    Главный режиссер: Стефан Апельгрен, Мартен Клинберг

    Актеры
    Питер Абер, Микаэл Персбрандт, Йонас Карлссон, Ребека Хемсе, Манс Натанаэльсон, София Зуаги, Эльмира Арикан, Ану Синисало, Анна Асп, Ингвар Хирдвалль

    Сюжет фильма
    Детективный сериал Комиссар полиции Мартин Бек снят по мотивам произведений Пера Валё и Май Шёвалль. Шведский детектив Мартин Бек уже давно занял достойное место среди всемирно известных сыщиков наряду с Шерлоком Холмсом и инспектором Мегрэ. Настоящий нордический характер, помноженный на уникальные дедуктивные способности — что еще нужно для того, чтобы ни одно преступление не осталось нераскрытым? Впрочем, он обычный человек, который расстался с женой, не находит понимания у детей, часто простужается, много курит, и по утрам внимательно прислушивается — где кольнет на этот раз?..
    Снималось в: Швеция, Германия, Дания, Nordisk Film, Shine International, Filmlance International ABTV4 AB, ZDF, TV2 NORGE
    Время просмотра: 2 x ~ 00: 01: 30
    Перевод текста: Любительский одноголосый (Project Web Mania)
    Файл
    Кодек для видео: XviD
    Качество фильма: HDTVRip
    Информация о видео: XviD, ~ 2065 Кбит/с, 720x400
    Информация о звуке: AC3, 2 ch, 192 Кбит/с
    Скриншоты




    Медиа-Инфо
    Видео
    Идентификатор : 0
    Формат : MPEG-4 Visual
    Профиль формата : Advanced Simple@L5
    Параметр BVOP формата : 2
    Параметр QPel формата : Нет
    Параметр GMC формата : Без точки перехода
    Параметр матрицы формата : Выборочная
    Идентификатор кодека : XVID
    Идентификатор кодека/Подсказка : XviD
    Продолжительность : 1 ч. 25 м.
    Битрейт : 2065 Кбит/сек
    Ширина : 720 пикселей
    Высота : 400 пикселей
    Соотношение сторон : 16: 9
    Частота кадров : 25, 000 кадров/сек
    Цветовое пространство : YUV
    Субдискретизация насыщенности : 4: 2: 0
    Битовая глубина : 8 бит
    Тип развёртки : Прогрессивная
    Метод сжатия : С потерями
    Бит/(Пиксели*Кадры) : 0.287
    Размер потока : 1, 24 Гбайт (91%)
    Библиотека кодирования : XviD 64
    Аудио
    Идентификатор : 1
    Формат : AC-3
    Формат/Информация : Audio Coding 3
    Расширение режима : CM (complete main)
    Параметр Endianness формата : Big
    Идентификатор кодека : 2000
    Продолжительность : 1 ч. 25 м.
    Вид битрейта : Постоянный
    Битрейт : 192 Кбит/сек
    Каналы : 2 канала
    Расположение каналов : Front: L R
    Частота : 48, 0 КГц
    Битовая глубина : 16 бит
    Метод сжатия : С потерями
    Размер потока : 118 Мбайт (8%)
    Выравнивание : Разделение по промежуткам
    Продолжительность промежутка : 40 мс. (1, 00 видеокадр)
    Время предзагрузки промежутка : 500 мс.

    Релиз подготовил:
    Автор релиза:
    Залил: MusiCant

    Онлайн видео Комиссар полиции Мартин Бек


    Размер скачиваемого торрента: 2.76 GB (2959296512 Bytes)

    Комиссар полиции Мартин Бек/Beck (2015) HDTVRip от ExKinoRay | L1
    загрузка...
    Рейтинг →
     (голосов: 1, оценка 4/5, голосовать можно 1 раз )

    Другие торренты по теме:

  • Комиссар Рекс / Kommissar Rex (1996-1997) DVDRip
  • Комиссар - Короли (2013) MP3
  • Комиссар - Коллекция (1991-2013) FLAC
  • Комиссар Рекс / Kommissar Rex (1994-2009) WEB-DL | P
  • Комиссар Рекс / Kommissar Rex (1994-2004) DVDRip
  • Комиссар X: Поцелуй и убей / Kommissar X: Jagd auf Unbekannt (1966) DVDRip от NovaLan скачать через торрент бесплатно
  • Комиссар Рекс / Il commissario Rex (2008) DVDRip скачать через торрент бесплатно
  • Комиссар / Инспектор / Il commissario (1962) HDDVDRip-AVC от ixatran007 | P


    • Комментарии (0):

      Информация

      Информация

        Посетители, находящиеся в группе Гости, не могут оставлять комментарии в данной новости.

        ↓ Меню



        ↓ Опрос

        А Вы добавили сайт в закладки?
        Да
        Не


        Top 10 за месяц (Фильмы)