.
Авторизация | Регистрация
Хочешь лучшие торренты? Добавь свой email!
Добавить




Физрук (2016) DVB от Files-x скачать торрент бесплатно

Опубликовал: Админ | Дата: 6-04-2016, 16:15 | Просмотров: 89



Детально о кино
Русское название: Физрук
Создали в: 2016
Категория жанра: Комедия
Главный режиссер: Фёдор Стуков, Сергей Сенцов

Актеры
Дмитрий Нагиев, Александр Гордон, Полина Гренц, Анастасия Панина, Владимир Сычев, Даниил Вахрушев, Андрей Крыжний, Артур Сопельник, Оксана Сидоренко, Карина Мишулина

Сюжет фильма
Физрук 3 сезон любимого сериала начинается с того, что с Фомы сняты все обвинения. Оказавшись на свободе, он видит, что жизнь его друзей изменилась: у Психа кризис среднего возраста, Таня строит новые отношения, а Мамаева, лишившись бизнеса отца, сводит концы с концами. Но физрук умеет решать проблемы. Фоме предстоит вернуть отжатый бизнес Саше как законной наследнице, завоевать Татьяну, и решить вопрос с гангстабоссом Леной, на стороне которой деньги, связи и армия головорезов. Зато в арсенале Фомы надежная команда, новая невероятная схема, в которой замешаны школа, Татьяна Александровна, друг детства и духовный наставник Миша по кличке Буддист и даже президент России. Все вместе они отправятся на поиски истины, счастья и справедливости. У них на всех всего одно заветное желание, и компаньоны уверены, что оно обязательно сбудется.
Снималось в: Россия, ТНТ
Время просмотра: 3 Х ~ 00: 25: 00
Перевод текста: Не требуется
Файл:
Качество фильма: DVB
Информация о видео: MPEG-4 AVC, ~ 1900 Кбит/с, 720x576@720х768
Информация о звуке: MP2, 2 ch, 192 Кбит/с
Семпл
MI
Общее
Идентификатор : 1 (0x1)
Полное имя : F: RipaiFizruk-3.;DVB.Files-x2.Fizruk-3.;DVB.Files-x.ts
Формат : MPEG-TS
Размер файла : 383 Мбайт
Продолжительность : 24 м.
Режим общего битрейта : Переменный
Общий поток : 2181 Кбит/сек
Видео
Идентификатор : 67 (0x43)
Идентификатор меню : 1 (0x1)
Формат : AVC
Формат/Информация : Advanced Video Codec
Профиль формата : High@L3
Параметр CABAC формата : Да
Параметр ReFrames формата : 3 кадра
Идентификатор кодека : 27
Продолжительность : 24 м.
Битрейт : 1879 Кбит/сек
Ширина : 720 пикселей
Высота : 576 пикселей
Соотношение сторон : 4: 3
Частота кадров : 25, 000 кадров/сек
Стандарт вещания : Component
Цветовое пространство : YUV
Субдискретизация насыщенности : 4: 2: 0
Битовая глубина : 8 бит
Тип развёртки : Чересстрочная
Метод сохранения типа развёртки : Раздельные поля
Порядок развёртки : Верхнее поле первое
Бит/(Пиксели*Кадры) : 0.181
Размер потока : 330 Мбайт (86%)
Цветовой диапазон : Limited
Основные цвета : BT.601 PAL
Характеристики трансфера : BT.470 System B, BT.470 System G
Коэффициенты матрицы : BT.601
Аудио
Идентификатор : 68 (0x44)
Идентификатор меню : 1 (0x1)
Формат : MPEG Audio
Версия формата : Version 1
Профиль формата : Layer 2
Идентификатор кодека : 3
Продолжительность : 24 м.
Вид битрейта : Постоянный
Битрейт : 192 Кбит/сек
Каналы : 2 канала
Частота : 48, 0 КГц
Метод сжатия : С потерями
Задержка видео : -40 мс.
Размер потока : 33, 7 Мбайт (9%)
Язык : English

Скриншоты

Релиз подготовил:
Залил: wowa63
Размер скачиваемого торрента: 1.09 GB (1175691088 Bytes)

Физрук (2016) DVB от Files-x
загрузка...
Рейтинг →
 (голосов: 1, оценка 5/5, голосовать можно 1 раз )

Другие торренты по теме:

  • Физрук (2016) SATRip от Files-x
  • Физрук (2016) SATRip-AVC от Files-x
  • Физрук (2016) WEB-DLRip от Files-x
  • Физрук (2017) WEB-DLRip от Files-x
  • Физрук (2017) WEB-DLRip-AVC от Files-x


    • Комментарии (0):

      Информация

      Информация

        Посетители, находящиеся в группе Гости, не могут оставлять комментарии в данной новости.

        ↓ Меню



        ↓ Опрос

        А Вы добавили сайт в закладки?
        Да
        Не


        Top 10 за месяц (Фильмы)