.
Авторизация | Регистрация
Хочешь лучшие торренты? Добавь свой email!
Добавить




Кукла / The Boy (2016) WEBRip | Line скачать торрент бесплатно

Опубликовал: Админ | Дата: 6-04-2016, 05:00 | Просмотров: 10176


Кукла/The Boy



Категория жанра: Ужасы, триллер
Снималось в: США, Китай, Канада
Создали в: 2016
Время просмотра: 01: 33: 08

Перевод текста: Профессиональный (дублированный) Line
Субтитры подготовлены: нет
Главный режиссер: Уильям Брент Белл/William Brent Bell


Актеры
Лорен Кохэн, Руперт Эванс, Джеймс Расселл, Джим Нортон (I), Диана Хардкэсл, Бен Робсон, Джетт Клине, Стефани Николь Лемелин

Описание: Благополучная английская семья нанимает для своего сына американскую няню. Приехав на новое место работы, няня обнаруживает, что ее подопечный — вовсе не настоящий мальчик, а кукла в человеческий рост, с которой обращаются, как с живым человеком. Но тревожные события, происходящие после того, как няня нарушает установленные строгие правила, заставляют её поверить в то, что кукла действительно может быть живой…


Релиз: от -warx-
Семпл: http://multi-up.com/1096147
Качество фильма видео: WEBRip
Тип видео файла: AVI

Информация о видео: 688x288 (2.35: 1), 25 fps, XviD ~768 kbps avg, 0.155 bit/pixel
Информация о звуке: 48 kHz, MPEG Layer 3, 2 ch, ~128.00 kbps avg

MediaInfo

Общее
Полное имя : D: ТоррентыKykla.2O16.D.WEB.avi
Формат : AVI
Формат/Информация : Audio Video Interleave
Размер файла : 603 Мбайт
Продолжительность : 1 ч. 33 м.
Общий поток : 906 Кбит/сек
Программа кодирования : VirtualDubMod 1.5.10.3 | www.virtualdub-fr.org || (build 2550/release)
Библиотека кодирования : VirtualDubMod build 2550/release
Видео
Идентификатор : 0
Формат : MPEG-4 Visual
Профиль формата : Advanced Simple@L5
Параметр BVOP формата : 2
Параметр QPel формата : Нет
Параметр GMC формата : Без точки перехода
Параметр матрицы формата : Default (H.263)
Идентификатор кодека : XVID
Идентификатор кодека/Подсказка : XviD
Продолжительность : 1 ч. 33 м.
Битрейт : 768 Кбит/сек
Ширина : 688 пикс.
Высота : 288 пикс.
Соотношение сторон : 2, 35: 1
Частота кадров : 25, 000 кадр/сек
Цветовое пространство : YUV
Подвыборка цветности : 4: 2: 0
Битовая глубина : 8 бит
Тип развёртки : Прогрессивная
Метод сжатия : С потерями
Бит/(Пиксели*Кадры) : 0.155
Размер потока : 512 Мбайт (85%)
Библиотека кодирования : XviD 1.2.1 (UTC 2008-12-04)
Аудио
Идентификатор : 1
Формат : MPEG Audio
Версия формата : Version 1
Профиль формата : Layer 3
Идентификатор кодека : 55
Идентификатор кодека/Подсказка : MP3
Продолжительность : 1 ч. 33 м.
Вид битрейта : Постоянный
Битрейт : 128 Кбит/сек
Каналы : 2 канала
Частота : 48, 0 КГц
Метод сжатия : С потерями
Размер потока : 85, 3 Мбайт (14%)
Выравнивание : Соединение по промежуткам
Продолжительность промежутка : 40 мс. (1, 00 видеокадр)
Время предзагрузки промежутка : 504 ms
Библиотека кодирования : LAME3.98r
Залил: -warx-
Размер скачиваемого торрента: 603.36 MB (632672256 Bytes)


Кукла/The Boy (2016) WEBRip | Line
загрузка...
Рейтинг →
 (голосов: 1, оценка 5/5, голосовать можно 1 раз )

Другие торренты по теме:

  • Кукла / Boy (2016) WEBRip 720p | Line
  • Кукла / The Boy (2016) WEBRip | Line


    • Комментарии (0):

      Информация

      Информация

        Посетители, находящиеся в группе Гости, не могут оставлять комментарии в данной новости.

        ↓ Меню



        ↓ Опрос

        А Вы добавили сайт в закладки?
        Да
        Не


        Top 10 за месяц (Фильмы)