.
Авторизация | Регистрация
Хочешь лучшие торренты? Добавь свой email!
Добавить




Тени (1953) DVDRip от New-Team скачать торрент бесплатно

Опубликовал: Админ | Дата: 5-04-2016, 11:59 | Просмотров: 95



Снималось в: СССР
Создали в: Ленфильм
Категория жанра: драма, мелодрама
Создали в: 1953
Время просмотра: 01: 44: 15
Перевод текста: Не требуется
Субтитры подготовлены: нет
Оригинальная аудиодорожка: русский
Главный режиссер: Надежда Кошеверова, Николай Акимов

Актеры

Валентин Лебедев, Владимир Петров, Галина Короткевич, Вера Будрейко, Юрий Бубликов, Анатолий Абрамов, Александр Гюльцен, Овсей Каган, В. Фомичев, Дмитрий Бессонов, Евгений Гвоздев...
Полный список актёров
Описание:
Фильм-спектакль по одноименной пьесе М. Е. Салтыкова-Щедрина.
Экранизация спектакля Ленинградского театра им. Ленсовета.
60-е годы XIX века. Из провинции в Петербург приезжает либерально настроенный молодой чиновник Бобырев. Он надеется под покровительством своего школьного товарища Клаверова, ставшего генералом, сделать карьеру. Генерал с радостью определяет Бобырева в свою канцелярию, и уже выстраивает планы, как через красавицу Софью, жену Бобырева, будет вести успешную борьбу с противниками и влиять на сластолюбивого министра Тараканова…



Источник: DVD5 R5
Качество фильма видео: DVDRip
Тип видео видео: AVI
Информация о видео: 576x432 (4: 3), 25 fps, XviD ~ 863 kbps avg, 0.139 bit/pixel
Информация о звуке: 48 kHz, MP3 2.0, 128 kbps
Раздача от:
MediaInfo

Общее
Полное имя : Teni.1953.DVDRip-745_New-team_by_AVP_Studio.avi
Формат : AVI
Формат/Информация : Audio Video Interleave
Размер файла : 746 Мбайт
Продолжительность : 1 ч. 44 м.
Общий поток : 1001 Кбит/сек
Программа кодирования : VirtualDubMod 1.5.10.3 | www.virtualdub-fr.org || (build 2550/release)
Библиотека кодирования : VirtualDubMod build 2550/release
Видео
Идентификатор : 0
Формат : MPEG-4 Visual
Профиль формата : Advanced Simple@L5
Параметр BVOP формата : 1
Параметр QPel формата : Нет
Параметр GMC формата : Без точки перехода
Параметр матрицы формата : Выборочная
Идентификатор кодека : XVID
Идентификатор кодека/Подсказка : XviD
Продолжительность : 1 ч. 44 м.
Битрейт : 863 Кбит/сек
Ширина : 576 пикселей
Высота : 432 пикселя
Соотношение сторон : 4: 3
Частота кадров : 25, 000 кадров/сек
Цветовое пространство : YUV
Субдискретизация насыщенности : 4: 2: 0
Битовая глубина : 8 бит
Тип развёртки : Прогрессивная
Метод сжатия : С потерями
Бит/(Пиксели*Кадры) : 0.139
Размер потока : 643 Мбайт (86%)
Библиотека кодирования : XviD 1.2.1 (UTC 2008-12-04)
Аудио
Идентификатор : 1
Формат : MPEG Audio
Версия формата : Version 1
Профиль формата : Layer 3
Идентификатор кодека : 55
Идентификатор кодека/Подсказка : MP3
Продолжительность : 1 ч. 44 м.
Вид битрейта : Постоянный
Битрейт : 128 Кбит/сек
Каналы : 2 канала
Частота : 48, 0 КГц
Метод сжатия : С потерями
Размер потока : 95, 4 Мбайт (13%)
Выравнивание : Соединение по промежуткам
Продолжительность промежутка : 40 мс. (1, 00 видеокадр)
Время предзагрузки промежутка : 504 мс.
Библиотека кодирования : LAME3.99r
Залил: AVPStudio

Онлайн видео Тени (1953) DVDRip от New


Размер скачиваемого торрента: 745.98 MB (782219264 Bytes)


Тени (1953) DVDRip от New-Team
загрузка...
Рейтинг →
 (голосов: 1, оценка 4/5, голосовать можно 1 раз )

Другие торренты по теме:

  • Дверь / Люди-тени / The Door / Shadow people (2013) DVDRip | Sub
  • Люди-тени / The shadow men (1997) DVDRip
  • Тени становятся черными / Shadows Run Black (1986) DVDRip скачать через торрент бесплатно
  • Тени над Нотр-Дам / Schatten Uber Notre Dame (1968) DVDRip-AVC
  • Тени прошлого / The Cutter (2005) DVDRip-AVC | P
  • Создатели тени / Толстяк и малыш / Shadow Makers / Fat Man and Little Boy (1989) DVDRip от FilmRus | P
  • Тени прошлого / Shadow Man (2006) DVDRip от FilmRus | P
  • Тени и лица / Glgeler ve suretler (2010) DVDRip от FilmRus | L1 скачать через торрент бесплатно


    • Комментарии (0):

      Информация

      Информация

        Посетители, находящиеся в группе Гости, не могут оставлять комментарии в данной новости.

        ↓ Меню



        ↓ Опрос

        А Вы добавили сайт в закладки?
        Да
        Не


        Top 10 за месяц (Фильмы)