.
Авторизация | Регистрация
Хочешь лучшие торренты? Добавь свой email!
Добавить
» » Часы отчаяния / Desperate Hours (1990) BDRip от Leon-masl | P, A скачать торрент бесплатно




    Часы отчаяния / Desperate Hours (1990) BDRip от Leon-masl | P, A скачать торрент бесплатно

    Опубликовал: Админ | Дата: 3-04-2016, 05:00 | Просмотров: 141



    Детально о кино
    Русское название: Часы отчаяния
    Русское название в мировом прокате: Desperate Hours
    Создали в: 1990
    Категория жанра: Триллер, драма, криминал
    Главный режиссер: Майкл Чимино

    Актеры
    Микки Рурк, Энтони Хопкинс, Мими Роджерс, Линдси Краус, Келли Линч, Элиас Котеас, Дэвид Морс, Шоуни Смит, Дэнни Герард, Джерри Бэммен, Мэтт МакГрат, Джон Кристофер Джонс, Дин Норрис, Джон Финн, Кристофер Карри, Стэнли Уайт, Питер Кромби, Эллен Паркер, Элизабет Руссо, Кеннет Басс, Майк Нассбаум, Эллен МакЭлдафф, Бриттни Льюис, Лизе Уилбурн, Рон Бёрд, Алексис Фернандез

    Сюжет фильма

    Психологический триллер, ремейк фильма Уильяма Уайлера (1955 год). В основу обоих фильмов положен роман Джозефа Хэйеса (Joseph Hayes), ранее поставленный на Бродвейской сцене. Фильм рассказывает о наглом психопате Босуэрте, сбежавшем из тюрьмы при помощи страстно влюбленной в него адвокатши. Бандит и его сообщнии решают спрятаться в самом обычном доме. Пребывание преступной троицы в гостях превратилось в кошмар для его мирных обитателей...

    Снималось в: США, Dino De Laurentiis Company
    Время просмотра: 01: 45: 06
    Перевод текста: Профессиональный многоголосый, Авторский одноголосый (Андрей Гаврилов)
    Файл
    Кодек для видео: XviD
    Качество фильма: BDRip
    Информация о видео: 704x384, 23.976 fps, 1593 kbps
    Информация о звуке 1: AC3, 2.0 ch, 48 kHz, 192 kbps...........Профессиональный многоголосый
    Информация о звуке 2: AC3, 2.0 ch, 48 kHz, 192 kbps...........Авторский одноголосый (Андрей Гаврилов)
    MI
    Общее
    Полное имя : Desperate.Hours.1990.BDRip.avi
    Формат : AVI
    Формат/Информация : Audio Video Interleave
    Размер файла : 1, 46 Гбайт
    Продолжительность : 1 ч. 45 м.
    Общий поток : 1991 Кбит/сек
    Программа кодирования : VirtualDubMod 1.5.10.2 (build 2542/release)
    Библиотека кодирования : VirtualDubMod build 2542/release
    Видео
    Идентификатор : 0
    Формат : MPEG-4 Visual
    Профиль формата : Advanced Simple@L5
    Параметр BVOP формата : 2
    Параметр QPel формата : Нет
    Параметр GMC формата : Без точки перехода
    Параметр матрицы формата : Выборочная
    Идентификатор кодека : XVID
    Идентификатор кодека/Подсказка : XviD
    Продолжительность : 1 ч. 45 м.
    Битрейт : 1593 Кбит/сек
    Ширина : 704 пикс.
    Высота : 384 пикс.
    Соотношение сторон : 16: 9
    Частота кадров : 23, 976 кадр/сек
    Цветовое пространство : YUV
    Подвыборка цветности : 4: 2: 0
    Битовая глубина : 8 бит
    Тип развёртки : Прогрессивная
    Метод сжатия : С потерями
    Бит/(Пиксели*Кадры) : 0.246
    Размер потока : 1, 17 Гбайт (80%)
    Библиотека кодирования : XviD 73
    Аудио #1
    Идентификатор : 1
    Формат : AC-3
    Формат/Информация : Audio Coding 3
    Расширение режима : CM (complete main)
    Идентификатор кодека : 2000
    Продолжительность : 1 ч. 45 м.
    Вид битрейта : Постоянный
    Битрейт : 192 Кбит/сек
    Канал(ы) : 2 канала(ов)
    Расположение каналов : Front: L R
    Частота : 48, 0 КГц
    Битовая глубина : 16 бит
    Метод сжатия : С потерями
    Размер потока : 144 Мбайт (10%)
    Выравнивание : Разделение по промежуткам
    Продолжительность промежутка : 42 мс. (1, 00 видеокадр)
    Время предзагрузки промежутка : 500 ms
    Аудио #2
    Идентификатор : 2
    Формат : AC-3
    Формат/Информация : Audio Coding 3
    Расширение режима : CM (complete main)
    Идентификатор кодека : 2000
    Продолжительность : 1 ч. 45 м.
    Вид битрейта : Постоянный
    Битрейт : 192 Кбит/сек
    Канал(ы) : 2 канала(ов)
    Расположение каналов : Front: L R
    Частота : 48, 0 КГц
    Битовая глубина : 16 бит
    Метод сжатия : С потерями
    Размер потока : 144 Мбайт (10%)
    Выравнивание : Разделение по промежуткам
    Продолжительность промежутка : 42 мс. (1, 00 видеокадр)
    Время предзагрузки промежутка : 500 ms
    Скриншоты

    Релиз подготовил: Leon-masl
    Залил: leon-masl

    Онлайн видео Часы отчаяния


    Размер скачиваемого торрента: 1.46 GB (1569794048 Bytes)

    Часы отчаяния/Desperate Hours (1990) BDRip от Leon-masl | P, A
    загрузка...
    Рейтинг →
     (голосов: 1, оценка 5/5, голосовать можно 1 раз )

    Другие торренты по теме:

  • Часы отчаяния / Desperate Hours (1990) HDTVRip-AVC от Marvel | P. A
  • Часы отчаяния / Desperate Hours (1990) BDRip от HQCLUB | P
  • Часы отчаяния / Desperate Hours (1990) BDRip 1080p | P, P2, A


    • Комментарии (0):

      Информация

      Информация

        Посетители, находящиеся в группе Гости, не могут оставлять комментарии в данной новости.

        ↓ Меню



        ↓ Опрос

        А Вы добавили сайт в закладки?
        Да
        Не


        Top 10 за месяц (Фильмы)