.
Авторизация | Регистрация
Хочешь лучшие торренты? Добавь свой email!
Добавить
» » Однажды в Марселе / MR 73 (2008) BDRip-AVC | P, A скачать торрент бесплатно




    Однажды в Марселе / MR 73 (2008) BDRip-AVC | P, A скачать торрент бесплатно

    Опубликовал: Админ | Дата: 3-04-2016, 05:00 | Просмотров: 86



    Создали в: Франция
    Категория жанра: Триллер, Драма, Криминал
    Время просмотра: 02: 05: 11
    Перевод текста: Профессиональный (многоголосый, закадровый), авторский А.Гаврилов
    Субтитры: Русский, английский
    Главный режиссер: Оливье Маршаль
    Актеры: Даниель Отой, Оливия Бонэми, Катрин Маршаль, Франсис Рено, Джеральд Ларош, Гай Леклюиз, Филипп Наон, Clment Michu, Мусса Мааскри, Жан-Поль Зенакер.

    Описание фильма

    Серийный убийца терроризирует Марсель, и по его следу идет полицейский комиссар Луи Шнейдер. Этому безусловно лучшему в своем деле полицейскому мешают нормально жить и работать многочисленные призраки из прошлого и неодолимое пристрастие к алкоголю.
    Качество фильма видео: BDRip
    Информация о видео: AVC, 1056x448 (2.35: 1), 23.976 fps, 1 692 Kbps (0.149 bit/pixel)
    Информация о звуке #1: AC-3, 48.0 KHz, 6 ch, 448 Kbps, CBR (Russian) - многоголосый
    Информация о звуке #2: AC-3, 48.0 KHz, 6 ch, 384 Kbps, CBR (Russian) - авторский
    Mediainfo:

    Формат : Matroska
    Версия формата : Version 2
    Размер файла : 2, 25 Гбайт
    Продолжительность : 2 ч. 5 м.
    Общий поток : 2575 Кбит/сек
    Название фильма : Однажды в Марселе/MR 73 (2008)
    Дата кодирования : UTC 2016-02-26 19: 47: 05
    Программа кодирования : mkvmerge v5.3.0 (;I could have danced;) built on Feb 9 2012 10: 38: 07
    Библиотека кодирования : libebml v1.2.3 + libmatroska v1.3.0
    Attachment : Yes
    Видео
    Идентификатор : 1
    Формат : AVC
    Формат/Информация : Advanced Video Codec
    Профиль формата : High@L4.1
    Параметр CABAC формата : Да
    Параметр ReFrames формата : 9 кадров
    Идентификатор кодека : V_MPEG4/ISO/AVC
    Продолжительность : 2 ч. 5 м.
    Битрейт : 1692 Кбит/сек
    Ширина : 1056 пикселей
    Высота : 448 пикселей
    Соотношение сторон : 2, 35: 1
    Режим частоты кадров : Постоянный
    Частота кадров : 23, 976 кадра/сек
    Цветовое пространство : YUV
    Субдискретизация насыщенности : 4: 2: 0
    Битовая глубина : 8 бит
    Тип развёртки : Прогрессивная
    Бит/(Пиксели*Кадры) : 0.149
    Размер потока : 1, 48 Гбайт (66%)
    Заголовок : AVC @ 1700 kbps
    Библиотека кодирования : x264 core 146 r2538 121396c
    Настройки программы : cabac=1/ref=9/deblock=1: -2: -1/analyse=0x3: 0x113/me=umh/subme=10/psy=1/psy_rd=1.00: 0.05/mixed_ref=1/me_range=32/chroma_me=1/trellis=2/8x8dct=1/cqm=0/deadzone=21, 11/fast_pskip=1/chroma_qp_offset=-3/threads=3/lookahead_threads=1/sliced_threads=0/nr=0/decimate=1/interlaced=0/bluray_compat=0/constrained_intra=0/bframes=9/b_pyramid=2/b_adapt=2/b_bias=0/direct=1/weightb=1/open_gop=0/weightp=2/keyint=240/keyint_min=23/scenecut=40/intra_refresh=0/rc_lookahead=80/rc=crf/mbtree=1/crf=19.5/qcomp=0.60/qpmin=10/qpmax=51/qpstep=4/ip_ratio=1.40/aq=1: 1.00
    Язык : French
    Default : Нет
    Forced : Нет
    Аудио #1
    Идентификатор : 2
    Формат : AC-3
    Формат/Информация : Audio Coding 3
    Расширение режима : CM (complete main)
    Параметр Endianness формата : Big
    Идентификатор кодека : A_AC3
    Продолжительность : 2 ч. 5 м.
    Вид битрейта : Постоянный
    Битрейт : 448 Кбит/сек
    Каналы : 6 каналов
    Расположение каналов : Front: L C R, Side: L R, LFE
    Частота : 48, 0 КГц
    Битовая глубина : 16 бит
    Метод сжатия : С потерями
    Размер потока : 401 Мбайт (17%)
    Заголовок : AC3 5.1 @ 448 kbps (MVO)
    Язык : Russian
    Default : Нет
    Forced : Нет
    Аудио #2
    Идентификатор : 3
    Формат : AC-3
    Формат/Информация : Audio Coding 3
    Расширение режима : CM (complete main)
    Параметр Endianness формата : Big
    Идентификатор кодека : A_AC3
    Продолжительность : 2 ч. 5 м.
    Вид битрейта : Постоянный
    Битрейт : 384 Кбит/сек
    Каналы : 6 каналов
    Расположение каналов : Front: L C R, Side: L R, LFE
    Частота : 48, 0 КГц
    Битовая глубина : 16 бит
    Метод сжатия : С потерями
    Размер потока : 344 Мбайт (15%)
    Заголовок : AC3 5.1 @ 384 kbps (AVO А.Гаврилов)
    Язык : Russian
    Default : Нет
    Forced : Нет
    Текст #1
    Идентификатор : 4
    Формат : UTF-8
    Идентификатор кодека : S_TEXT/UTF8
    Идентификатор кодека/Информация : UTF-8 Plain Text
    Заголовок : Русские
    Язык : Russian
    Default : Нет
    Forced : Нет
    Текст #2
    Идентификатор : 5
    Формат : UTF-8
    Идентификатор кодека : S_TEXT/UTF8
    Идентификатор кодека/Информация : UTF-8 Plain Text
    Заголовок : Английские
    Язык : English
    Default : Нет
    Forced : Нет

    Скриншоты:


    Онлайн видео Однажды в Марселе


    Размер скачиваемого торрента: 2.25 GB (2417833260 Bytes)

    Однажды в Марселе/MR 73 (2008) BDRip-AVC | P, A
    загрузка...
    Рейтинг →
     (голосов: 1, оценка 4/5, голосовать можно 1 раз )

    Другие торренты по теме:

  • Однажды в Марселе / MR 73 (2008) BDRip 720p | A


    • Комментарии (0):

      Информация

      Информация

        Посетители, находящиеся в группе Гости, не могут оставлять комментарии в данной новости.

        ↓ Меню



        ↓ Опрос

        А Вы добавили сайт в закладки?
        Да
        Не


        Top 10 за месяц (Фильмы)