.
Авторизация | Регистрация
Хочешь лучшие торренты? Добавь свой email!
Добавить
» » В центре внимания / Spotlight (2015) BDRip | P | Лицензия скачать торрент бесплатно




    В центре внимания / Spotlight (2015) BDRip | P | Лицензия скачать торрент бесплатно

    Опубликовал: Админ | Дата: 2-04-2016, 05:00 | Просмотров: 98



    Детально о кино
    Русское название: В центре внимания
    Русское название в мировом прокате: Spotlight
    Создали в: 2015
    Категория жанра: Триллер, драма, биография, история
    Главный режиссер: Том МакКарти

    Актеры
    Марк Руффало, Майкл Китон, Рэйчел МакАдамс, Лив Шрайбер, Джон Слэттери, Стэнли Туччи, Брайан Д’Арси Джеймс, Елена Стайтелер, Джин Аморозо, Даг Мюррэй, Шэрон МакФарлэйн, Джейми Шеридан, Нил Хафф, Билли Крадап, Роберт Б. Кеннеди, Дуан Мюррэй, Брайан Чемберлен, Майкл Сирил Крейтон, Пол Гилфойл, Майкл Кантримэн

    Сюжет фильма

    Основанная на реальных событиях история журналистского расследования одного из самых громких в истории США секс-скандалов. Корреспонденты бостонской газеты разоблачают случаи педофилии, в которых обвиняются представители Церкви…

    Снималось в: США, Канада
    Киностудия: Anonymous Content, First Look Media, Participant Media
    Время просмотра: 02: 03: 25
    Перевод текста: Профессиональный (многоголосый, закадровый)BD RUS
    Файл
    Качество фильма: BDRip (исх.В центре внимания/Spotlight (2015) Blu-ray RUS 1080i AVC DTS-HD 5.1 )
    Кодек для видео: XviD
    Информация о видео: 720x384 (1, 85: 1), 25 fps, Xvid ~1236 kbps avg, 0.179 bit/pixel
    Информация о звуке: 48 kHz, AC3, 6 ch, ~448.00 kbps avg | русский |Профессиональный (многоголосый, закадровый)BD RUS
    Субтитры: Отсутствуют
    Семпл
    Инфо-файл
    Общее
    Полное имя : D: TorrentsЗавершенныеV centre vnimanya.2015.BDRip.1.46.avi
    Формат : AVI
    Формат/Информация : Audio Video Interleave
    Размер файла : 1, 46 Гбайт
    Продолжительность : 2 ч. 3 м.
    Общий поток : 1694 Кбит/сек
    Программа кодирования : VirtualDubMod 1.5.10.3 (build 2550/release)
    Библиотека кодирования : VirtualDubMod build 2550/release
    Видео
    Идентификатор : 0
    Формат : MPEG-4 Visual
    Профиль формата : Advanced Simple@L5
    Параметр BVOP формата : 2
    Параметр QPel формата : Нет
    Параметр GMC формата : Без точки перехода
    Параметр матрицы формата : Default (MPEG)
    Идентификатор кодека : XVID
    Идентификатор кодека/Подсказка : XviD
    Продолжительность : 2 ч. 3 м.
    Битрейт : 1236 Кбит/сек
    Ширина : 720 пикселей
    Высота : 384 пикселя
    Соотношение сторон : 1, 85: 1
    Частота кадров : 25, 000 кадров/сек
    Цветовое пространство : YUV
    Субдискретизация насыщенности : 4: 2: 0
    Битовая глубина : 8 бит
    Тип развёртки : Прогрессивная
    Метод сжатия : С потерями
    Бит/(Пиксели*Кадры) : 0.179
    Размер потока : 1, 07 Гбайт (73%)
    Библиотека кодирования : XviD 73
    Аудио
    Идентификатор : 1
    Формат : AC-3
    Формат/Информация : Audio Coding 3
    Расширение режима : CM (complete main)
    Параметр Endianness формата : Big
    Идентификатор кодека : 2000
    Продолжительность : 2 ч. 3 м.
    Вид битрейта : Постоянный
    Битрейт : 448 Кбит/сек
    Каналы : 6 каналов
    Расположение каналов : Front: L C R, Side: L R, LFE
    Частота : 48, 0 КГц
    Метод сжатия : С потерями
    Размер потока : 395 Мбайт (26%)
    Выравнивание : Разделение по промежуткам
    Продолжительность промежутка : 40 мс. (1, 00 видеокадр)
    Время предзагрузки промежутка : 500 мс.
    Скриншоты

    Залил: admiralkz

    Онлайн видео В центре внимания


    Размер скачиваемого торрента: 1.46 GB (1567684608 Bytes)

    В центре внимания/Spotlight (2015) BDRip | P | Лицензия
    загрузка...
    Рейтинг →
     (голосов: 1, оценка 4/5, голосовать можно 1 раз )

    Другие торренты по теме:

  • В центре внимания (2016) качество DVD Screen
  • В центре внимания / Spotlight (2015) BDRip 720p | iTunes
  • В центре внимания / Spotlight (2015) HDRip от Scarabey | iTunes
  • В центре внимания / Spotlight (2015) BDRip-AVC от ExKinoRay | Лицензия
  • В центре внимания / Spotlight (2015) BDRip от HQ-ViDEO | Лицензия
  • В центре внимания / Spotlight (2015) BDRip-AVC от HELLYWOOD | Лицензия
  • В центре внимания / Spotlight (2015) HDRip от Kaztorrents | КПК | Лицензия
  • В центре внимания / Spotlight (2015) BDRip от MegaPeer | A


    • Комментарии (0):

      Информация

      Информация

        Посетители, находящиеся в группе Гости, не могут оставлять комментарии в данной новости.

        ↓ Меню



        ↓ Опрос

        А Вы добавили сайт в закладки?
        Да
        Не


        Top 10 за месяц (Фильмы)