.
Авторизация | Регистрация
Хочешь лучшие торренты? Добавь свой email!
Добавить
» » Звёздные войны: Пробуждение силы / Star Wars: Episode VII - The Force Awakens (2015) BDRip 1080p | iTunes скачать торрент бесплатно




    Звёздные войны: Пробуждение силы / Star Wars: Episode VII - The Force Awakens (2015) BDRip 1080p | iTunes скачать торрент бесплатно

    Опубликовал: Админ | Дата: 1-04-2016, 05:00 | Просмотров: 91



    Детально о кино
    Русское название: Звёздные войны: Пробуждение силы
    Русское название в мировом прокате: Star Wars: Episode VII - The Force Awakens
    Создали в: 2015
    Категория жанра: фантастика, фэнтези, боевик, приключения
    Главный режиссер: Джей Джей Абрамс

    Актеры
    Джон Бойега, Дэйзи Ридли, Оскар Айзек, Адам Драйвер, Донал Глисон, Харрисон Форд, Марк Хэмилл, Кэрри Фишер, Макс фон Сюдов, Энди Серкис

    Сюжет фильма

    Через тридцать лет после гибели Дарта Вейдера и Императора галактика по-прежнему в опасности. Государственное образование Первый Орден во главе с таинственным верховным лидером Сноуком и его правой рукой Кайло Реном идёт по стопам Империи, пытаясь захватить всю власть. В это нелёгкое время судьба сводит юную девушку Рей и бывшего штурмовика Первого Ордена Финна с героями войны с Империей — Ханом Соло, Чубаккой и генералом Леей. Вместе они должны дать бой Первому Ордену, однако настаёт тот момент, когда становится очевидно, что лишь джедаи могут остановить Сноука и Кайло Рена.

    Снималось в: США
    Киностудия: Bad Robot, Lucasfilm Ltd., Truenorth Productions
    Время просмотра: 02: 18: 06
    Перевод текста: Профессиональный (дублированный) iTunes Russia
    Файл
    Тип видео: Matroska
    Информация о видео: 1920x800 at 23.976 fps, email protected/**/, ~15900 kbps avg
    Информация о звуке#1: Russian: 48 kHz, AC3, 3/2 (L, C, R, l, r) + LFE ch, ~384.00 kbps avg |Дубляж, iTunes Russia|
    Информация о звуке#2: English: 48 kHz, DTS, 3/2 (L, C, R, l, r) + LFE ch, ~1509.00 kbps avg
    Субтитры: Russian (Forced), Russian (iTunes), Russian (Notabenoid), English (Full, SDH, SDH-COLORED)
    ***Сохранены оригинальные главы как на Blu-ray.
    ***Видеоряд от DON.
    MI
    Общее
    Уникальный идентификатор : 236214163059704277028990440690919456976 (0xB1B53167F4F2F21EAB191816BB68C0D0)
    Полное имя : Звёздные войны. Пробуждение силы (2016. Star Wars. The Force Awakens).mkv
    Формат : Matroska
    Версия формата : Version 2
    Размер файла : 17, 6 Гбайт
    Продолжительность : 2 ч. 18 м.
    Общий поток : 18, 2 Мбит/сек
    Дата кодирования : UTC 2016-03-31 21: 57: 27
    Программа кодирования : mkvmerge v4.9.1 (;Ich will;) сборка от Jul 11 2011 23: 53: 15
    Библиотека кодирования : libebml v1.2.1 + libmatroska v1.1.1
    Attachements : Cover.jpg
    Видео
    Идентификатор : 1
    Формат : AVC
    Формат/Информация : Advanced Video Codec
    Профиль формата : High@L4.1
    Параметр CABAC формата : Да
    Параметр ReFrames формата : 5 кадров
    Идентификатор кодека : V_MPEG4/ISO/AVC
    Продолжительность : 2 ч. 18 м.
    Битрейт : 15, 9 Мбит/сек
    Ширина : 1920 пикселей
    Высота : 800 пикселей
    Соотношение сторон : 2, 40: 1
    Режим частоты кадров : Постоянный
    Частота кадров : 23, 976 кадра/сек
    Цветовое пространство : YUV
    Субдискретизация насыщенности : 4: 2: 0
    Битовая глубина : 8 бит
    Тип развёртки : Прогрессивная
    Бит/(Пиксели*Кадры) : 0.433
    Размер потока : 15, 4 Гбайт (88%)
    Заголовок : Star.Wars.Episode.VII - The.Force.Awakens.2015.1080p.BluRay.DTS.x264-DON
    Библиотека кодирования : x264 core 146 r0+2586 e393126 t_mod_Custom 8-bit@all X86_64
    Настройки программы : cabac=1/ref=5/deblock=1: -3: -3/analyse=0x3: 0x133/me=umh/subme=10/psy=1/fade_compensate=0.00/psy_rd=1.00: 0.00/mixed_ref=1/me_range=24/chroma_me=1/trellis=2/8x8dct=1/cqm=0/deadzone=21, 11/fast_pskip=0/chroma_qp_offset=-2/threads=12/lookahead_threads=2/sliced_threads=0/nr=0/decimate=0/interlaced=0/bluray_compat=0/constrained_intra=0/fgo=0/bframes=9/b_pyramid=2/b_adapt=2/b_bias=0/direct=3/weightb=1/open_gop=0/weightp=2/keyint=250/keyint_min=23/scenecut=40/intra_refresh=0/rc_lookahead=60/rc=crf/mbtree=0/crf=17.7000/qcomp=0.65/qpmin=0: 0: 0/qpmax=69: 69: 69/qpstep=4/vbv_maxrate=62500/vbv_bufsize=78125/crf_max=0.0/nal_hrd=none/filler=0/ip_ratio=1.30/pb_ratio=1.20/aq=3: 0.80/aq-sensitivity=10.00/aq-factor=1.00: 1.00: 1.00/aq2=0/aq3=0
    Язык : English
    Default : Да
    Forced : Нет
    Цветовой диапазон : Limited
    Коэффициенты матрицы : BT.709
    Аудио #1
    Идентификатор : 2
    Формат : AC-3
    Формат/Информация : Audio Coding 3
    Расширение режима : CM (complete main)
    Параметр Endianness формата : Big
    Идентификатор кодека : A_AC3
    Продолжительность : 2 ч. 18 м.
    Вид битрейта : Постоянный
    Битрейт : 384 Кбит/сек
    Каналы : 6 каналов
    Расположение каналов : Front: L C R, Side: L R, LFE
    Частота : 48, 0 КГц
    Метод сжатия : С потерями
    Размер потока : 379 Мбайт (2%)
    Заголовок : Дубляж
    Язык : Russian
    Default : Да
    Forced : Нет
    Аудио #2
    Идентификатор : 3
    Формат : DTS
    Формат/Информация : Digital Theater Systems
    Режим : 16
    Параметр Endianness формата : Big
    Идентификатор кодека : A_DTS
    Продолжительность : 2 ч. 18 м.
    Вид битрейта : Постоянный
    Битрейт : 1509 Кбит/сек
    Каналы : 6 каналов
    Расположение каналов : Front: L C R, Side: L R, LFE
    Частота : 48, 0 КГц
    Битовая глубина : 24 бит
    Метод сжатия : С потерями
    Размер потока : 1, 46 Гбайт (8%)
    Язык : English
    Default : Нет
    Forced : Нет
    Текст #1
    Идентификатор : 4
    Формат : UTF-8
    Идентификатор кодека : S_TEXT/UTF8
    Идентификатор кодека/Информация : UTF-8 Plain Text
    Заголовок : forced
    Язык : Russian
    Default : Да
    Forced : Нет
    Текст #2
    Идентификатор : 5
    Формат : UTF-8
    Идентификатор кодека : S_TEXT/UTF8
    Идентификатор кодека/Информация : UTF-8 Plain Text
    Заголовок : iTunes
    Язык : Russian
    Default : Нет
    Forced : Нет
    Текст #3
    Идентификатор : 6
    Формат : UTF-8
    Идентификатор кодека : S_TEXT/UTF8
    Идентификатор кодека/Информация : UTF-8 Plain Text
    Заголовок : notabenoid
    Язык : Russian
    Default : Нет
    Forced : Нет
    Текст #4
    Идентификатор : 7
    Формат : UTF-8
    Идентификатор кодека : S_TEXT/UTF8
    Идентификатор кодека/Информация : UTF-8 Plain Text
    Язык : English
    Default : Нет
    Forced : Нет
    Текст #5
    Идентификатор : 8
    Формат : UTF-8
    Идентификатор кодека : S_TEXT/UTF8
    Идентификатор кодека/Информация : UTF-8 Plain Text
    Заголовок : SDH
    Язык : English
    Default : Нет
    Forced : Нет
    Текст #6
    Идентификатор : 9
    Формат : UTF-8
    Идентификатор кодека : S_TEXT/UTF8
    Идентификатор кодека/Информация : UTF-8 Plain Text
    Заголовок : SDH-COLORED
    Язык : English
    Default : Нет
    Forced : Нет
    Меню
    00: 00: 00.000 : en: Opening Logo
    00: 00: 09.259 : en: The Force Awakens
    00: 01: 43.061 : en: The First Order Approaches
    00: 03: 51.856 : en: Village Raid
    00: 06: 12.288 : en: Kylo Ren
    00: 09: 33.948 : en: FN-2187
    00: 10: 43.559 : en: Rey
    00: 12: 35.713 : en: Niima Outpost
    00: 13: 39.693 : en: Rey at Home
    00: 14: 48.220 : en: Saving BB-8
    00: 16: 45.921 : en: Interrogation
    00: 18: 04.583 : en: Unkar;s Offer
    00: 19: 21.535 : en: Jailbreak
    00: 21: 26.618 : en: TIE Gighter Escape
    00: 24: 03.650 : en: Marooned on Jakku
    00: 26: 47.022 : en: Crossing Paths
    00: 29: 54.667 : en: Marketplace Chase
    00: 31: 49.324 : en: The Falcon Flies Again
    00: 35: 51.774 : en: Introductions
    00: 36: 40.615 : en: Kylo Is Updated
    00: 37: 45.513 : en: Fixing the Falcon
    00: 40: 19.250 : en: Chewie, We;re Home
    00: 43: 39.199 : en: Corellion Stand
    00: 45: 29.560 : en: Rathtar Mayhem
    00: 49: 22.918 : en: Supreme Leader
    00: 51: 19.951 : en: It;s All True
    00: 54: 13.750 : en: Meeting Maz
    00: 59: 48.793 : en: Discussions of Destinies
    01: 04: 16.060 : en: Visions in the Force
    01: 08: 37.238 : en: Starkiller
    01: 11: 07.221 : en: First Order Invasion
    01: 15: 16.386 : en: Resistance to the Rescue
    01: 16: 49.896 : en: Kylo Finds Rey
    01: 19: 37.522 : en: Reunion
    01: 20: 56.893 : en: Resistance Base
    01: 25: 36.172 : en: Rey Imprisoned
    01: 32: 12.568 : en: Resistance Briefing
    01: 35: 29.014 : en: Starkiller Landing
    01: 36: 34.955 : en: Base Infiltration
    01: 39: 28.629 : en: X-Wing Attack
    01: 41: 29.958 : en: Rejoining Rey
    01: 42: 57.504 : en: Into The Oscillator
    01: 45: 00.002 : en: Father and Son
    01: 50: 33.710 : en: Dark Forest
    01: 53: 39.771 : en: Oscillator Breached
    01: 55: 22.165 : en: Forest Duel
    01: 58: 05.453 : en: Cataclysm
    02: 01: 05.591 : en: Made Whole
    02: 02: 32.678 : en: Finding the Master
    02: 07: 07.578 : en: End Credits
    Скриншоты



    Онлайн видео Звёздные войны: Пробуждение силы


    Размер скачиваемого торрента: 17.56 GB (18852995905 Bytes)

    Звёздные войны: Пробуждение силы/Star Wars: Episode VII - The Force Awakens (2015) BDRip 1080p | iTunes
    загрузка...
    Рейтинг →
     (голосов: 1, оценка 5/5, голосовать можно 1 раз )

    Другие торренты по теме:

  • Звёздные войны: Последние джедаи / Star Wars: The Last Jedi (2017) CAMRip | D
  • Звёздные войны: Роболомка (1999) PC
  • OST - Звёздные войны Эпизод I - III / Star Wars Episode I - III (1999 - 2005) MP3
  • Различные авторы - Звёздные войны (1976-2013) TXT
  • Звёздные войны: Эпизод 4 - Новая надежда / Star Wars: Episode IV - A New Hope (1977) HDRip-AVC от Leo.pard and Scarabey | Лицензия
  • Звёздные войны: Эпизод 5 – Империя наносит ответный удар / Star Wars: Episode V - The Empire Strikes Back (1980) HDRip-AVC от Scarabey | D скачать через торрент бесплатно
  • Звёздные войны: Эпизод 1 – Скрытая угроза / Star Wars: Episode I - The Phantom Menace (1999) HDRip-AVC от Leo.pard and Scarabey | Лицензия скачать через торрент бесплатно
  • Звёздные войны: Эпизод 3 – Месть Ситхов / Star Wars: Episode III - Revenge of the Sith (2005) HDRip-AVC от Leo.pard and Scarabey | Лицензия скачать через торрент бесплатно


    • Комментарии (0):

      Информация

      Информация

        Посетители, находящиеся в группе Гости, не могут оставлять комментарии в данной новости.

        ↓ Меню



        ↓ Опрос

        А Вы добавили сайт в закладки?
        Да
        Не


        Top 10 за месяц (Фильмы)