.
Авторизация | Регистрация
Хочешь лучшие торренты? Добавь свой email!
Добавить
» » Кухня (2012...) DVDRip-AVC, WEB-DLRip-AVC от New-Team скачать торрент бесплатно




    Кухня (2012...) DVDRip-AVC, WEB-DLRip-AVC от New-Team скачать торрент бесплатно

    Опубликовал: Админ | Дата: 30-03-2016, 12:03 | Просмотров: 89


    Вкусная комедия

    Снималось в: Россия/Yellow, Black White
    Категория жанра: комедия
    Создали в: 2012...
    Время просмотра: 00: 24: 00/серия
    Перевод текста: Не требуется
    Субтитры подготовлены: нет
    Оригинальная аудиодорожка: русский
    Главный режиссер: Дмитрий Дьяченко, Жора Крыжовников

    Актеры
    Дмитрий Назаров, Марк Богатырев, Дмитрий Нагиев, Юлия Такшина, Елена Подкаминская, Марина Могилевская, Виктор Хориняк, Никита Тарасов, Сергей Епишев, Ольга Кузьмина...
    Описание: Во все времена еда была рядом с людьми. Она искушает, вдохновляет, восхищает, отвращает. Но человек не может без еды, а значит тот, кто создает еду, может управлять миром…. Так думал Максим Лавров, когда шел осуществлять свою мечту — устраиваться поваром в один из самых дорогих ресторанов столицы. Мечта сбылась, вот только на деле все вышло не так вкусно. Шеф-повар ресторана Виктор Баринов — настоящая звезда гастрономического бомонда, знающая как угодить взыскательной публике. Оборотная сторона этого идеального образа — злоупотребление алкоголем, страсть к азартным играм и невыносимый характер. В гневе Баринов страшен, в загуле — неукротим. Арт-директор Виктория Гончарова — настоящая снежная королева, карьеристка с ледяным сердцем, однако именно с ней Макс проводит ночь до того, как пойти на новую работу. А вся команда поваров только и ждет промашки новичка, чтобы от души посмеяться.

    Качество фильма: DVDRip / 8 x DVD9 R5- лицензионные диски от CD Land + WEB-DL 720p
    Тип видео: MKV
    Информация о видео: email protected/**/(16: 9), 25.000 fps, MPEG-4 AVC ~ 1809 kbps avg, 0.174 bit/pixel
    Информация о звуке: 48 kHz, Dolby AC3, 2 ch, 192 kbps, русский
    Дополнительно: В раздаче присутствует бонусный фильм: Фильм о фильме. 5-й и 6-й сезон любимого сериалаы временные. По появлению DVD с этими сезон любимого сериалаами будут заменены.
    Раздача от:
    Внимание! Раздача ведётся путём добавления новых серий

    Внимание! Раздача ведётся путём добавления новых серий
    При каждом добавлении создаётся новый торрент. Чтобы начать докачку новой серии, пользователям необходимо сделать следующее:
    1) остановить скачивание,
    2) удалить старый торрент у себя из клиента (старые серии удалять не надо),
    3) скачать новый торрент и запустить его у себя в клиенте вместо старого, при этом указать клиенту путь в старую папку куда и должно происходить скачивание новых серий.
    Ваш клиент при этом должен произвести хеширование (проверку) старой папки (если не производит сам - помогите ему сделать это), и будет докачивать только те серии которых у вас ещё нет. Старые серии при этом не удаляются, а продолжают раздаваться!
    Eсли вы уже удалили старые серии, то предотвратить повторную закачку старых серий можно, отжав галочку в соответствующих местах при запуске нового торрента.

    MediaInfo

    Общее
    Формат : Matroska
    Версия формата : Version 2
    Размер файла : 385 Мбайт
    Продолжительность : 26 м.
    Общий поток : 2002 Кбит/сек
    Дата кодирования : UTC 2014-09-01 00: 10: 49
    Программа кодирования : mkvmerge v6.1.0 (;Old Devil;) built on Mar 4 2013 09: 10: 42
    Библиотека кодирования : libebml v1.3.0 + libmatroska v1.4.0
    Видео
    Идентификатор : 1
    Формат : AVC
    Формат/Информация : Advanced Video Codec
    Профиль формата : High@L4.1
    Параметр CABAC формата : Да
    Параметр ReFrames формата : 8 кадров
    Идентификатор кодека : V_MPEG4/ISO/AVC
    Продолжительность : 26 м.
    Битрейт : 1809 Кбит/сек
    Ширина : 720 пикселей
    Высота : 576 пикселей
    Соотношение сторон : 16: 9
    Режим частоты кадров : Постоянный
    Частота кадров : 25, 000 кадров/сек
    Стандарт вещания : PAL
    Цветовое пространство : YUV
    Субдискретизация насыщенности : 4: 2: 0
    Битовая глубина : 8 бит
    Тип развёртки : Прогрессивная
    Бит/(Пиксели*Кадры) : 0.174
    Размер потока : 341 Мбайт (88%)
    Библиотека кодирования : x264 core 138 r2356 a1d3d17
    Настройки программы : cabac=1/ref=8/deblock=1: -2: -1/analyse=0x3: 0x113/me=umh/subme=10/psy=1/psy_rd=1.00: 0.05/mixed_ref=1/me_range=32/chroma_me=1/trellis=2/8x8dct=1/cqm=0/deadzone=21, 11/fast_pskip=0/chroma_qp_offset=-3/threads=6/lookahead_threads=1/sliced_threads=0/nr=0/decimate=0/interlaced=0/bluray_compat=0/constrained_intra=0/bframes=8/b_pyramid=2/b_adapt=2/b_bias=0/direct=3/weightb=1/open_gop=0/weightp=2/keyint=250/keyint_min=25/scenecut=40/intra_refresh=0/rc=2pass/mbtree=0/bitrate=1809/ratetol=1.0/qcomp=0.60/qpmin=0/qpmax=69/qpstep=4/cplxblur=20.0/qblur=0.5/ip_ratio=1.40/pb_ratio=1.30/aq=1: 1.00
    Default : Да
    Forced : Нет
    Аудио
    Идентификатор : 2
    Формат : AC-3
    Формат/Информация : Audio Coding 3
    Расширение режима : CM (complete main)
    Параметр Endianness формата : Big
    Идентификатор кодека : A_AC3
    Продолжительность : 26 м.
    Вид битрейта : Постоянный
    Битрейт : 192 Кбит/сек
    Каналы : 2 канала
    Расположение каналов : Front: L R
    Частота : 48, 0 КГц
    Битовая глубина : 16 бит
    Метод сжатия : С потерями
    Размер потока : 36, 9 Мбайт (10%)
    Default : Да
    Forced : Нет

    Скриншоты:



    Торрент файл обновлен 29 марта 2016 года, добавлена 17 серия 6-го сезон любимого сериалаа
    Размер скачиваемого торрента: 41.83 GB (44910805535 Bytes)

    Кухня (2012...) DVDRip-AVC, WEB-DLRip-AVC от New-Team
    загрузка...
    Рейтинг →
     (голосов: 1, оценка 4/5, голосовать можно 1 раз )

    Другие торренты по теме:

  • Кухня (2013) DVDRip-AVC от Youtracker | лицензия


    • Комментарии (0):

      Информация

      Информация

        Посетители, находящиеся в группе Гости, не могут оставлять комментарии в данной новости.

        ↓ Меню



        ↓ Опрос

        А Вы добавили сайт в закладки?
        Да
        Не


        Top 10 за месяц (Фильмы)