.
Авторизация | Регистрация
Хочешь лучшие торренты? Добавь свой email!
Добавить
» » 11 / 22 / 63 / 11.22.63 (2016) WEB-DLRip-AVC от NNM-CLUB | Jaskier скачать торрент бесплатно




    11 / 22 / 63 / 11.22.63 (2016) WEB-DLRip-AVC от NNM-CLUB | Jaskier скачать торрент бесплатно

    Опубликовал: Админ | Дата: 25-03-2016, 12:53 | Просмотров: 77



    Создали в: США/Bad Robot, Warner Bros. Television
    Категория жанра: фантастика, триллер, детектив
    Главный режиссер: Джеймс Стронг, Фред Туа, Джеймс Кент
    Актеры: Джеймс Франко, Крис Купер, Джош Дюамель, Люси Фрай, Сара Гадон, Черри Джонс, Т.Р. Найт, Джордж МакКэй, Даниэль Уэббер и др.

    Описание фильма

    Фантастический фильм по роману Стивена Кинга 11/22/63. Джейк Эппинг – учитель английского языка в средней школе. Один из его учеников пишет эссе о том, что случилось 50 лет назад. Отец одного мальчика пришел домой пьяным и забил молотком свою жену, двух сыновей и дочь. Мальчик остался жив, но с тех пор хромает. Друг Джейка предлагает ему отправиться в 1958 год и предотвратить убийство президента Джона Кеннеди. Джейк не только спасает семью того мальчика, но и выслеживает убийцу Кеннеди.

    Дата мировой премьеры: 15 февраля 2016
    Релиз подготовил: K.E.N(NNM-CLUB)
    Время просмотра: ~00: 54: 00 серия (1 серия - 01: 20: 41)
    Качество фильма видео: WEB-DLRip-AVC
    Перевод текста: Многоголосый закадровый, профессиональный -Jaskier
    Субтитры: Отсутствуют
    Информация о видео: AVC, 1024x512 (2.000), 23.976 fps, 1 175 Kbps (0.093 bit/pixel)
    Информация о звуке: AC-3, 48.0 KHz, 2 ch, 192 Kbps, CBR (Russian)
    MediaInfo
    codeФормат : Matroska
    Версия формата : Version 2
    Размер файла : 518 Мбайт
    Продолжительность : 52 м.
    Общий поток : 1368 Кбит/сек
    Дата кодирования : UTC 2016-03-23 22: 25: 14
    Программа кодирования : mkvmerge v5.3.0 (;I could have danced;) built on Feb 9 2012 10: 38: 07
    Библиотека кодирования : libebml v1.2.3 + libmatroska v1.3.0
    Attachment : Yes
    Видео
    Идентификатор : 1
    Формат : AVC
    Формат/Информация : Advanced Video Codec
    Профиль формата : High@L4.1
    Параметр CABAC формата : Да
    Параметр ReFrames формата : 8 кадров
    Идентификатор кодека : V_MPEG4/ISO/AVC
    Продолжительность : 52 м.
    Битрейт : 1175 Кбит/сек
    Ширина : 1024 пикселя
    Высота : 512 пикселей
    Соотношение сторон : 2, 000
    Режим частоты кадров : Постоянный
    Частота кадров : 23, 976 кадра/сек
    Цветовое пространство : YUV
    Субдискретизация насыщенности : 4: 2: 0
    Битовая глубина : 8 бит
    Тип развёртки : Прогрессивная
    Бит/(Пиксели*Кадры) : 0.093
    Размер потока : 435 Мбайт (84%)
    Заголовок : 11.22.63 .The.Eyes.of.Texas.720p.WEBRip.AAC2.0.H.264-RARBG
    Библиотека кодирования : x264 core 148 r2597M e86f3a1
    Настройки программы : cabac=1/ref=8/deblock=1: -3: -2/analyse=0x3: 0x133/me=umh/subme=9/psy=0/mixed_ref=0/me_range=24/chroma_me=1/trellis=2/8x8dct=1/cqm=0/deadzone=21, 11/fast_pskip=0/chroma_qp_offset=0/threads=6/lookahead_threads=1/sliced_threads=0/nr=0/decimate=1/interlaced=0/bluray_compat=0/constrained_intra=0/bframes=6/b_pyramid=2/b_adapt=2/b_bias=0/direct=3/weightb=1/open_gop=0/weightp=0/keyint=240/keyint_min=23/scenecut=40/intra_refresh=0/rc_lookahead=60/rc=2pass/mbtree=0/bitrate=1175/ratetol=1.0/qcomp=0.60/qpmin=0/qpmax=69/qpstep=4/cplxblur=20.0/qblur=0.5/vbv_maxrate=9800/vbv_bufsize=9800/nal_hrd=none/filler=0/ip_ratio=1.40/pb_ratio=1.30/aq=2: 0.70
    Default : Да
    Forced : Нет
    Аудио
    Идентификатор : 2
    Формат : AC-3
    Формат/Информация : Audio Coding 3
    Расширение режима : CM (complete main)
    Параметр Endianness формата : Big
    Идентификатор кодека : A_AC3
    Продолжительность : 52 м.
    Вид битрейта : Постоянный
    Битрейт : 192 Кбит/сек
    Каналы : 2 канала
    Расположение каналов : Front: L R
    Частота : 48, 0 КГц
    Битовая глубина : 16 бит
    Метод сжатия : С потерями
    Задержка видео : 27 мс.
    Размер потока : 72, 7 Мбайт (14%)
    Язык : Russian
    Default : Да
    Forced : Нет/code

    Раздача ведётся путём добавления новых серий
    Раздача ведётся путём добавления новых серий; при каждом добавлении создаётся новый торрент. Чтобы начать докачку новой серии, пользователям необходимо сделать следующее:
    (1) остановить скачивание,
    (2) удалить старый торрент у себя из клиента (старые серии удалять не надо),
    (3) скачать новый торрент и запустить его у себя в клиенте вместо старого, при этом указать клиенту путь в старую папку куда и должно происходить скачивание новых серий.
    Ваш клиент при этом должен произвести хеширование (проверку) старой папки (если не производит сам - помогите ему сделать это), и будет докачивать только те серии которых у вас ещё нет. Старые серии при этом не удаляются, а продолжают раздаваться!
    Eсли вы уже удалили старые серии, то предотвратить повторную закачку старых серий можно, отжав галочку в соответствующих местах при запуске нового торрента. По возможности, желательно не удалять старые серии как можно дольше чтобы релизёр не столько продолжал раздавать старые серии, а смог сконцентрироваться на новых.

    Скриншоты:


    Размер скачиваемого торрента: 3.29 GB (3536325907 Bytes)

    11/22/63/11.22.63 (2016) WEB-DLRip-AVC от NNM-CLUB | Jaskier
    загрузка...
    Рейтинг →
     (голосов: 1, оценка 4/5, голосовать можно 1 раз )

    Другие торренты по теме:

  • Контроль / Control (2004) WEB-DLRip-AVC от NNM-CLUB | P
  • Особь: Пробуждение / Species: The Awakening (2007) WEB-DLRip-AVC от NNM-CLUB | P
  • Шерлок: Безобразная невеста / Sherlock: The Abominable Bride (2015) WEB-DLRip-AVC от NNM-CLUB | Первый канал
  • Белые цыпочки / White Chicks (2004) WEB-DLRip-AVC от NNM-CLUB | A | Unrated Edition


    • Комментарии (0):

      Информация

      Информация

        Посетители, находящиеся в группе Гости, не могут оставлять комментарии в данной новости.

        ↓ Меню



        ↓ Опрос

        А Вы добавили сайт в закладки?
        Да
        Не


        Top 10 за месяц (Фильмы)