.
Авторизация | Регистрация
Хочешь лучшие торренты? Добавь свой email!
Добавить
» » Лес призраков / The Forest (2016) WEB-DL 1080p | Line скачать торрент бесплатно




    Лес призраков / The Forest (2016) WEB-DL 1080p | Line скачать торрент бесплатно

    Опубликовал: Админ | Дата: 25-03-2016, 05:00 | Просмотров: 132



    Детально о кино
    Русское название: Лес призраков
    Русское название в мировом прокате: The Forest
    Создали в: 2016
    Категория жанра: Ужасы
    Главный режиссер: Джейсон Зада

    Актеры
    Натали Дормер, Оуэн Мэкен, Стефани Вогт, Осаму Танпопо, Ясуо Тобисима, Ибуки Канеда, Акико Ивасе, Кикуо Ичикава, Норико Сакура, Йозеф Аоки

    Сюжет фильма

    Юная американка Сара отправляется на поиски сестры-близняшки, которая таинственным образом исчезла на японском острове Хонсю. Поиски приводят к подножью горы Фудзи, в таинственный лес, который пользуется дурной славой. Сара не подозревала, что она вступает в мрачный мир призраков, злых и измученных душ, которые охотятся на любого, кто блуждает по их мрачному лесу…

    Снималось в: США
    Киностудия: AI-Film, Lava Bear Films
    Время просмотра: 01: 29: 21
    Перевод текста: Дубляж iTunes
    Файл
    Кодек для видео: MPEG-4
    Качество фильма: WEB-DL 1080p
    Информация о видео: 1914x1032, 4653 Kbps, 23.976 fps
    Информация о звуке:
    Информация о звуке #1: 48 kHz, AC3 Dolby Digital, 2/0 (L, R) ch, ~192 kbps |RUS|
    Информация о звуке #2: 48 kHz, AC3 Dolby Digital, 3/2 (L, C, R, l, r) + LFE ch, ~384 kbps |ENG|
    Субтитры: Английские
    Media-info
    Общее
    Уникальный идентификатор : 218255725889327549516082250065622800329 (0xA4328617EA63A9CD93F0237B19E317C9)
    Полное имя : E: VideoThe.Forest.2016.WEB-DL.1080p.mkv
    Формат : Matroska
    Версия формата : Version 4/Version 2
    Размер файла : 3, 41 Гбайт
    Продолжительность : 1 ч. 33 м.
    Общий поток : 5231 Кбит/сек
    Название фильма : The.Forest.2016.WEB-DL.1080p
    Дата кодирования : UTC 2016-03-23 00: 51: 27
    Программа кодирования : mkvmerge v8.3.0 (;Over the Horizon;) 64bit
    Библиотека кодирования : libebml v1.3.1 + libmatroska v1.4.2
    Обложка : Yes
    Attachments : cover_land.jpg/small_cover.jpg/small_cover_land.jpg/cover.jpg
    Видео
    Идентификатор : 1
    Формат : AVC
    Формат/Информация : Advanced Video Codec
    Профиль формата : High@L4
    Параметр CABAC формата : Да
    Параметр ReFrames формата : 4 кадра
    Идентификатор кодека : V_MPEG4/ISO/AVC
    Продолжительность : 1 ч. 33 м.
    Битрейт : 4653 Кбит/сек
    Ширина : 1914 пикселей
    Высота : 1032 пикселя
    Соотношение сторон : 1, 85: 1
    Режим частоты кадров : Постоянный
    Частота кадров : 23, 976 (23976/1000) кадра/сек
    Цветовое пространство : YUV
    Субдискретизация насыщенности : 4: 2: 0
    Битовая глубина : 8 бит
    Тип развёртки : Прогрессивная
    Бит/(Пиксели*Кадры) : 0.098
    Размер потока : 3, 03 Гбайт (89%)
    Язык : English
    Default : Да
    Forced : Нет
    Цветовой диапазон : Limited
    Основные цвета : BT.709
    Характеристики трансфера : BT.709
    Коэффициенты матрицы : BT.709
    Аудио #1
    Идентификатор : 2
    Формат : AC-3
    Формат/Информация : Audio Coding 3
    Расширение режима : CM (complete main)
    Параметр Endianness формата : Big
    Идентификатор кодека : A_AC3
    Продолжительность : 1 ч. 33 м.
    Вид битрейта : Постоянный
    Битрейт : 192 Кбит/сек
    Каналы : 2 канала
    Расположение каналов : Front: L R
    Частота : 48, 0 КГц
    Частота кадров : 31, 250 кадров/сек (1536 spf)
    Метод сжатия : С потерями
    Размер потока : 128 Мбайт (4%)
    Заголовок : Line
    Язык : Russian
    Default : Да
    Forced : Нет
    Аудио #2
    Идентификатор : 3
    Формат : AC-3
    Формат/Информация : Audio Coding 3
    Расширение режима : CM (complete main)
    Параметр Endianness формата : Big
    Идентификатор кодека : A_AC3
    Продолжительность : 1 ч. 33 м.
    Вид битрейта : Постоянный
    Битрейт : 384 Кбит/сек
    Каналы : 6 каналов
    Расположение каналов : Front: L C R, Side: L R, LFE
    Частота : 48, 0 КГц
    Частота кадров : 31, 250 кадров/сек (1536 spf)
    Метод сжатия : С потерями
    Размер потока : 256 Мбайт (7%)
    Язык : English
    Default : Нет
    Forced : Нет
    Текст
    Идентификатор : 4
    Формат : UTF-8
    Идентификатор кодека : S_TEXT/UTF8
    Идентификатор кодека/Информация : UTF-8 Plain Text
    Продолжительность : 1 ч. 24 м.
    Битрейт : 35 бит/сек
    Count of elements : 742
    Размер потока : 22, 2 Кбайт (0%)
    Язык : English
    Default : Нет
    Forced : Нет
    Меню
    00: 00: 00.000 : en: 1
    00: 05: 33.000 : en: 2
    00: 09: 31.000 : en: 3
    00: 15: 38.000 : en: 4
    00: 19: 25.000 : en: 5
    00: 23: 39.000 : en: 6
    00: 28: 58.000 : en: 7
    00: 34: 16.000 : en: 8
    00: 36: 59.000 : en: 9
    00: 40: 27.000 : en: 10
    00: 43: 57.000 : en: 11
    00: 48: 49.000 : en: 12
    00: 53: 21.000 : en: 13
    00: 59: 40.000 : en: 14
    01: 02: 36.000 : en: 15
    01: 07: 21.000 : en: 16
    01: 11: 34.000 : en: 17
    01: 16: 28.000 : en: 18
    01: 21: 36.000 : en: 19
    01: 26: 56.000 : en: 20
    Скриншоты



    Онлайн видео Лес призраков


    Размер скачиваемого торрента: 3.41 GB (3659989659 Bytes)

    Лес призраков/The Forest (2016) WEB-DL 1080p | Line
    загрузка...
    Рейтинг →
     (голосов: 1, оценка 4/5, голосовать можно 1 раз )

    Другие торренты по теме:

  • Лес призраков / The Forest (2015) WEBRip | Чистый звук
  • Лес призраков / The Forest (2015) WEBRip | Line
  • Лес призраков / The Forest (2016) HDRip от MegaPeer | iTunes
  • Лес призраков / The Forest (2016)
  • Лес призраков / The Forest (2016) BDRip 1080p от ExKinoRay | iTunes
  • Лес призраков / The Forest (2016) BDRip-AVC от HELLYWOOD | iTunes


    • Комментарии (0):

      Информация

      Информация

        Посетители, находящиеся в группе Гости, не могут оставлять комментарии в данной новости.

        ↓ Меню



        ↓ Опрос

        А Вы добавили сайт в закладки?
        Да
        Не


        Top 10 за месяц (Фильмы)