.
Авторизация | Регистрация
Хочешь лучшие торренты? Добавь свой email!
Добавить




Кухня (2016) SATRip от GeneralFilm скачать торрент бесплатно

Опубликовал: Админ | Дата: 24-03-2016, 14:01 | Просмотров: 73



Детально о кино
Русское название: Кухня
Создали в: 2016
Категория жанра: Комедия
Главный режиссер: Дмитрий Дьяченко, Жора Крыжовников, Антон Федотов

Актеры
Дмитрий Назаров, Дмитрий Нагиев, Елена Подкаминская, Марина Могилевская, Марк Богатырёв, Михаил Башкатов, Виктор Хориняк, Ольга Кузьмина, Екатерина Кузнецова, Валерия Федорович, Жанныл Асанбекова, Елена Чернявская, Алексей Колган, Сергей Лавыгин, Сергей Епишев, Михаил Тарабукин, Никита Тарасов, Юлия Такшина, Виктория Лукина, Виталий Щанников, Сергей Беляев, Роман Индык, Евгения Храповицкая, Ольга Новосад, Серафима Низовская, Александр Карпиловский, Мария Горбань, Ирина Бразговка

Сюжет фильма

Прошлый ресторан Claude Monet пережил потоп, пожар, различные облавы и даже визит президента. После чего был переезд в Париж, где самые лучшие повара не давали покоя конкурентам. Но даже это не предел того, что будет в новом сезон любимого сериалае. Команда вместе с Виктором Бариновым перейдет работать в другой ресторан. Телезрителей ожидают не только старые полюбившиеся персонажи, но и новые, которые не сразу смогут мириться с весьма вспыльчивым характером шефа. Об этом и многом другом мы узнаем после просмотра финального сезон любимого сериалаа сериала Кухня.
Снималось в: Россия
Время просмотра: ~ 00: 28: 00
Язык: Русский
Файл
Качество фильма: SATRip
Тип видео: AVI
Информация о видео: XviD, ~ 1550 Кбит/с, 720х400
Информация о звуке: AC3, 2 ch, 192 Кбит/с
МедиаИнфо
Kuhnja.2016.15.XviD.SATRip.by.GeneralFilm.avi
Формат : AVI
Формат/Информация : Audio Video Interleave
Размер файла : 303 Мбайт
Продолжительность : 24 м.
Общий поток : 1751 Кбит/сек
Программа кодирования : VirtualDubMod 1.5.10.3 | www.virtualdub-fr.org || (build 2550/release)
Библиотека кодирования : VirtualDubMod build 2550/release
Видео
Идентификатор : 0
Формат : MPEG-4 Visual
Профиль формата : Advanced Simple@L5
Параметр BVOP формата : 1
Параметр QPel формата : Нет
Параметр GMC формата : Без точки перехода
Параметр матрицы формата : Выборочная
Идентификатор кодека : XVID
Идентификатор кодека/Подсказка : XviD
Продолжительность : 24 м.
Битрейт : 1550 Кбит/сек
Ширина : 720 пикселей
Высота : 400 пикселей
Соотношение сторон : 16: 9
Частота кадров : 25, 000 кадров/сек
Цветовое пространство : YUV
Субдискретизация насыщенности : 4: 2: 0
Битовая глубина : 8 бит
Тип развёртки : Прогрессивная
Метод сжатия : С потерями
Бит/(Пиксели*Кадры) : 0.215
Размер потока : 267 Мбайт (88%)
Библиотека кодирования : XviD 73
Аудио
Идентификатор : 1
Формат : AC-3
Формат/Информация : Audio Coding 3
Расширение режима : CM (complete main)
Параметр Endianness формата : Big
Идентификатор кодека : 2000
Продолжительность : 24 м.
Вид битрейта : Постоянный
Битрейт : 192 Кбит/сек
Каналы : 2 канала
Расположение каналов : Front: L R
Частота : 48, 0 КГц
Частота кадров : 31, 250 кадров/сек (1536 spf)
Метод сжатия : С потерями
Размер потока : 33, 1 Мбайт (11%)
Выравнивание : Разделение по промежуткам
Продолжительность промежутка : 40 мс. (1, 00 видеокадр)
Время предзагрузки промежутка : 500 мс.

Скриншоты


Релиз подготовил:
Залил: vsobbol

Онлайн видео Элементарно


Размер скачиваемого торрента: 302.10 MB (316774400 Bytes)

Кухня (2016) SATRip от GeneralFilm
загрузка...
Рейтинг →
 (голосов: 1, оценка 5/5, голосовать можно 1 раз )

Другие торренты по теме:

  • Французская кухня у вас дома с Лаурой Колдер / French Food at Home with Laura Calder (2007-2008) SATRip
  • Кухня (2013) SATRip
  • Адская кухня (2013) SATRip
  • Кухня (2013) HQ SATRip
  • Кулинария. Домашняя кухня Гордона Рамзи (2013) SATRip
  • Кулинария. Китайская кухня с Гоком / Gok Cooks Chinese (2012) SATRip скачать через торрент бесплатно
  • Кухня (2014) SATRip скачать через торрент бесплатно
  • Высокая кухня (2014) SATRip от RusTorents


    • Комментарии (0):

      Информация

      Информация

        Посетители, находящиеся в группе Гости, не могут оставлять комментарии в данной новости.

        ↓ Меню



        ↓ Опрос

        А Вы добавили сайт в закладки?
        Да
        Не


        Top 10 за месяц (Фильмы)