.
Авторизация | Регистрация
Хочешь лучшие торренты? Добавь свой email!
Добавить
» » Звёздные войны: Пробуждение силы / Star Wars: Episode VII - The Force Awakens (2015) BDRip 1080p | Звук с CAMRip скачать торрент бесплатно




    Звёздные войны: Пробуждение силы / Star Wars: Episode VII - The Force Awakens (2015) BDRip 1080p | Звук с CAMRip скачать торрент бесплатно

    Опубликовал: Админ | Дата: 24-03-2016, 14:01 | Просмотров: 66



    Создали в: США/Bad Robot, Lucasfilm Ltd., Truenorth Productions
    Категория жанра: фантастика, фэнтези, боевик, приключения
    Главный режиссер: Джей Джей Абрамс
    Продюсер: Джей Джей Абрамс, Брайан Берк, Кэтлин Кеннеди
    Актеры: Джон Бойега, Дэйзи Ридли, Оскар Айзек, Адам Драйвер, Донал Глисон, Харрисон Форд, Марк Хэмилл, Кэрри Фишер, Макс фон Сюдов, Энди Серкис

    Описание фильма

    Через тридцать лет после гибели Дарта Вейдера и Императора галактика по-прежнему в опасности. Государственное образование Первый Орден во главе с их таинственным верховным лидером Сноуком и его правой рукой Кайло Реном идёт по стопам Империи, пытаясь захватить всю власть. В это нелёгкое время судьба сводит юную девушку Рей и бывшего штурмовика Первого Ордена Финна с героями времён войны с Империей — Ханом Соло, Чубаккой и генералом Леей. Вместе они должны дать бой Первому Ордену, однако настаёт тот момент, когда становится очевидно, что лишь джедаи могут остановить Сноука и Кайло Рена. И в галактике в живых остаётся только один…

    Возраст: 12+(зрителям, достигшим 12 лет)
    Рейтинг MPAA: PG-13(детям до 13 лет просмотр нежелателен)
    Дата мировой премьеры: 14 декабря 2015
    Дата российской премьеры: 17 декабря 2015, WDSSPR 3D
    Время просмотра: 02: 18: 06
    Качество фильма: BDRip 1080p (Сцен-рип)
    Перевод текста: Дублированный (звук с CamRip)
    Вид субтитров: Вшитые, отключаемые
    Язык субтитров: Английский
    Информация о видео: AVC/H.264, 1920x800, (2.40: 1), 9 825 Kbps, 23, 976 fps
    Информация о звуке: MP3, 2 ch, 192 kbps - Русский
    Информация о звуке: DTS, 6 ch, 1509 kbps - Английский
    MediaInfo:

    General
    Unique ID : 194501948518789865052727309527666083359 (0x9253B672D0020DEE89290202563B461F)
    Complete name : Star Wars: Episode VII - The Force Awaken BDRip 1080p.2015.D.mkv
    Format : Matroska
    Format version : Version 2
    File size : 11.1 GiB
    Duration : 2h 18mn
    Overall bit rate : 11.5 Mbps
    Encoded date : UTC 2016-03-22 20: 04: 03
    Writing application : mkvmerge v8.3.0 (;Over the Horizon;) 64bit
    Writing library : libebml v1.3.1 + libmatroska v1.4.2
    DURATION : 02: 06: 51.896000000
    NUMBER_OF_FRAMES : 1778
    NUMBER_OF_BYTES : 49658
    _STATISTICS_WRITING_APP : mkvmerge v8.3.0 (;Over the Horizon;) 64bit
    _STATISTICS_WRITING_DATE_UTC : 2016-03-22 20: 04: 03
    _STATISTICS_TAGS : BPS DURATION NUMBER_OF_FRAMES NUMBER_OF_BYTES
    Video
    ID : 2
    Format : AVC
    Format/Info : Advanced Video Codec
    Format profile : High@L4.1
    Format settings, CABAC : Yes
    Format settings, ReFrames : 5 frames
    Codec ID : V_MPEG4/ISO/AVC
    Duration : 2h 18mn
    Bit rate : 9 825 Kbps
    Width : 1 920 pixels
    Height : 800 pixels
    Display aspect ratio : 2.40: 1
    Frame rate mode : Constant
    Frame rate : 23.976 fps
    Color space : YUV
    Chroma subsampling : 4: 2: 0
    Bit depth : 8 bits
    Scan type : Progressive
    Bits/(Pixel*Frame) : 0.267
    Stream size : 9.26 GiB (83%)
    Writing library : x264 core 148 r2665 a01e339
    Encoding settings : cabac=1/ref=5/deblock=1: 0: 0/analyse=0x3: 0x113/me=umh/subme=8/psy=1/psy_rd=1.00: 0.00/mixed_ref=1/me_range=16/chroma_me=1/trellis=1/8x8dct=1/cqm=0/deadzone=21, 11/fast_pskip=0/chroma_qp_offset=-2/threads=24/lookahead_threads=4/sliced_threads=0/nr=0/decimate=1/interlaced=0/bluray_compat=0/constrained_intra=0/bframes=3/b_pyramid=2/b_adapt=2/b_bias=0/direct=3/weightb=1/open_gop=0/weightp=2/keyint=250/keyint_min=23/scenecut=40/intra_refresh=0/rc_lookahead=50/rc=2pass/mbtree=1/bitrate=9825/ratetol=1.0/qcomp=0.60/qpmin=0/qpmax=69/qpstep=4/cplxblur=20.0/qblur=0.5/ip_ratio=1.40/aq=1: 1.00
    Language : English
    Default : Yes
    Forced : No
    Audio #1
    ID : 1
    Format : MPEG Audio
    Format version : Version 1
    Format profile : Layer 3
    Mode : Joint stereo
    Mode extension : MS Stereo
    Codec ID : A_MPEG/L3
    Codec ID/Hint : MP3
    Duration : 2h 18mn
    Bit rate mode : Constant
    Bit rate : 192 Kbps
    Channel(s) : 2 channels
    Sampling rate : 48.0 KHz
    Compression mode : Lossy
    Stream size : 190 MiB (2%)
    Language : Russian
    Default : Yes
    Forced : No
    DURATION : 02: 18: 06.695000000
    NUMBER_OF_FRAMES : 198682
    NUMBER_OF_BYTES : 10172759746
    _STATISTICS_WRITING_APP : mkvmerge v8.3.0 (;Over the Horizon;) 64bit
    _STATISTICS_WRITING_DATE_UTC : 2016-03-22 20: 04: 03
    _STATISTICS_TAGS : BPS DURATION NUMBER_OF_FRAMES NUMBER_OF_BYTES
    Audio #2
    ID : 3
    Format : DTS
    Format/Info : Digital Theater Systems
    Mode : 16
    Format settings, Endianness : Big
    Codec ID : A_DTS
    Duration : 2h 18mn
    Bit rate mode : Constant
    Bit rate : 1 509 Kbps
    Channel(s) : 6 channels
    Channel positions : Front: L C R, Side: L R, LFE
    Sampling rate : 48.0 KHz
    Bit depth : 24 bits
    Compression mode : Lossy
    Stream size : 1.46 GiB (13%)
    Language : English
    Default : No
    Forced : No
    Text #1
    ID : 4
    Format : UTF-8
    Codec ID : S_TEXT/UTF8
    Codec ID/Info : UTF-8 Plain Text
    Title : English regular
    Default : No
    Forced : No
    Text #2
    ID : 5
    Format : UTF-8
    Codec ID : S_TEXT/UTF8
    Codec ID/Info : UTF-8 Plain Text
    Title : English sdh
    Default : No
    Forced : No
    Menu
    00: 00: 00.000 : en: 00: 00: 00.000
    00: 00: 09.259 : en: 00: 00: 09.259
    00: 01: 43.061 : en: 00: 01: 43.061
    00: 03: 51.857 : en: 00: 03: 51.857
    00: 06: 12.289 : en: 00: 06: 12.289
    00: 09: 33.948 : en: 00: 09: 33.948
    00: 10: 43.560 : en: 00: 10: 43.560
    00: 12: 35.713 : en: 00: 12: 35.713
    00: 13: 39.694 : en: 00: 13: 39.694
    00: 14: 48.221 : en: 00: 14: 48.221
    00: 16: 45.922 : en: 00: 16: 45.922
    00: 18: 04.583 : en: 00: 18: 04.583
    00: 19: 21.535 : en: 00: 19: 21.535
    00: 21: 26.619 : en: 00: 21: 26.619
    00: 24: 03.651 : en: 00: 24: 03.651
    00: 26: 47.022 : en: 00: 26: 47.022
    00: 29: 54.668 : en: 00: 29: 54.668
    00: 31: 49.324 : en: 00: 31: 49.324
    00: 35: 51.775 : en: 00: 35: 51.775
    00: 36: 40.615 : en: 00: 36: 40.615
    00: 37: 45.513 : en: 00: 37: 45.513
    00: 40: 19.250 : en: 00: 40: 19.250
    00: 43: 39.200 : en: 00: 43: 39.200
    00: 45: 29.560 : en: 00: 45: 29.560
    00: 49: 22.918 : en: 00: 49: 22.918
    00: 51: 19.952 : en: 00: 51: 19.952
    00: 54: 13.750 : en: 00: 54: 13.750
    00: 59: 48.794 : en: 00: 59: 48.794
    01: 04: 16.061 : en: 01: 04: 16.061
    01: 08: 37.238 : en: 01: 08: 37.238
    01: 11: 07.221 : en: 01: 11: 07.221
    01: 15: 16.387 : en: 01: 15: 16.387
    01: 16: 49.897 : en: 01: 16: 49.897
    01: 19: 37.523 : en: 01: 19: 37.523
    01: 20: 56.894 : en: 01: 20: 56.894
    01: 25: 36.173 : en: 01: 25: 36.173
    01: 32: 12.569 : en: 01: 32: 12.569
    01: 35: 29.015 : en: 01: 35: 29.015
    01: 36: 34.956 : en: 01: 36: 34.956
    01: 39: 28.629 : en: 01: 39: 28.629
    01: 41: 29.959 : en: 01: 41: 29.959
    01: 42: 57.505 : en: 01: 42: 57.505
    01: 45: 00.002 : en: 01: 45: 00.002
    01: 50: 33.710 : en: 01: 50: 33.710
    01: 53: 39.771 : en: 01: 53: 39.771
    01: 55: 22.165 : en: 01: 55: 22.165
    01: 58: 05.453 : en: 01: 58: 05.453
    02: 01: 05.592 : en: 02: 01: 05.592
    02: 02: 32.679 : en: 02: 02: 32.679
    02: 07: 07.578 : en: 02: 07: 07.578

    Скриншоты:

    Время раздачи: 24/7
    Внимание, присутствуют вставки голосовой и текстовой рекламы.

    Онлайн видео Звёздные войны: Пробуждение силы


    Размер скачиваемого торрента: 11.12 GB (11937801955 Bytes)

    Звёздные войны: Пробуждение силы/Star Wars: Episode VII - The Force Awakens (2015) BDRip 1080p | Звук с CAMRip
    загрузка...
    Рейтинг →
     (голосов: 1, оценка 3/5, голосовать можно 1 раз )

    Другие торренты по теме:

  • Звёздные войны: Последние джедаи / Star Wars: The Last Jedi (2017) CAMRip | D
  • Звёздные войны: Роболомка (1999) PC
  • OST - Звёздные войны Эпизод I - III / Star Wars Episode I - III (1999 - 2005) MP3
  • Различные авторы - Звёздные войны (1976-2013) TXT
  • Звёздные войны: Эпизод 4 - Новая надежда / Star Wars: Episode IV - A New Hope (1977) HDRip-AVC от Leo.pard and Scarabey | Лицензия
  • Звёздные войны: Эпизод 5 – Империя наносит ответный удар / Star Wars: Episode V - The Empire Strikes Back (1980) HDRip-AVC от Scarabey | D скачать через торрент бесплатно
  • Звёздные войны: Эпизод 1 – Скрытая угроза / Star Wars: Episode I - The Phantom Menace (1999) HDRip-AVC от Leo.pard and Scarabey | Лицензия скачать через торрент бесплатно
  • Звёздные войны: Эпизод 3 – Месть Ситхов / Star Wars: Episode III - Revenge of the Sith (2005) HDRip-AVC от Leo.pard and Scarabey | Лицензия скачать через торрент бесплатно


    • Комментарии (0):

      Информация

      Информация

        Посетители, находящиеся в группе Гости, не могут оставлять комментарии в данной новости.

        ↓ Меню



        ↓ Опрос

        А Вы добавили сайт в закладки?
        Да
        Не


        Top 10 за месяц (Фильмы)