.
Авторизация | Регистрация
Хочешь лучшие торренты? Добавь свой email!
Добавить
» » Голова над водой / Head Above Water (1996) WEB-DLRip от Leon-masl | P скачать торрент бесплатно




    Голова над водой / Head Above Water (1996) WEB-DLRip от Leon-masl | P скачать торрент бесплатно

    Опубликовал: Админ | Дата: 24-03-2016, 05:00 | Просмотров: 78



    Детально о кино
    Русское название: Голова над водой
    Русское название в мировом прокате: Head Above Water
    Создали в: 1996
    Категория жанра: Комедия, Триллер
    Главный режиссер: Джим Уилсон /Jim Wilson/

    Актеры
    Кэмерон Диаз, Харви Кейтель, Крэйг Шеффер, Билли Зейн, Шэй Даффин

    Сюжет фильма

    Очаровательной молодой женщине, планирующей экзотический отпуск на безлюдном побережье со своим новым мужем Джорджем. К несчастью, Натали оказывается предметом вожделения еще ДВУХ мужчин, очутившихся на острове ее друга детства Лэнса и бывшего возлюбленного — Кента.
    Оставшись наедине с Кентом, Натали изо всех сил старается быть верной женой, НУ а Кент, в свою очередь, прилагает все усилия, чтобы ее соблазнить. Однако на следующее утро, Натали уже не до любовных утех; героиня и ее ухажер оказываются вовлечены в бесконечную вереницу катастрофических неприятностей. Вот тут-то все и начинается.

    Снималось в: США
    Время просмотра: 01: 32: 14
    Перевод текста: Профессиональный (многоголосый закадровый)
    Файл
    Кодек для видео: XviD
    Качество фильма: WEB-DLRip
    Информация о видео: 720x400, 23.976 fps, XviD build 73 ~1918 kbps
    Информация о звуке: 48 kHz, AC3 Dolby Digital, 2/0 (L, R) ch, ~192.00 kbps
    MI
    Общее
    Полное имя : Head.Above.Water.1996.WEB-DLRip.avi
    Формат : AVI
    Формат/Информация : Audio Video Interleave
    Размер файла : 1, 36 Гбайт
    Продолжительность : 1 ч. 32 м.
    Общий поток : 2119 Кбит/сек
    Программа кодирования : VirtualDubMod 1.5.10.3 | www.virtualdub-fr.org || (build 2550/release)
    Библиотека кодирования : VirtualDubMod build 2550/release
    Видео
    Идентификатор : 0
    Формат : MPEG-4 Visual
    Профиль формата : Advanced Simple@L5
    Параметр BVOP формата : 1
    Параметр QPel формата : Нет
    Параметр GMC формата : Без точки перехода
    Параметр матрицы формата : Выборочная
    Идентификатор кодека : XVID
    Идентификатор кодека/Подсказка : XviD
    Продолжительность : 1 ч. 32 м.
    Битрейт : 1918 Кбит/сек
    Ширина : 720 пикс.
    Высота : 400 пикс.
    Соотношение сторон : 16: 9
    Частота кадров : 23, 976 кадр/сек
    Цветовое пространство : YUV
    Подвыборка цветности : 4: 2: 0
    Битовая глубина : 8 бит
    Тип развёртки : Прогрессивная
    Метод сжатия : С потерями
    Бит/(Пиксели*Кадры) : 0.278
    Размер потока : 1, 24 Гбайт (91%)
    Библиотека кодирования : XviD 73
    Аудио
    Идентификатор : 1
    Формат : AC-3
    Формат/Информация : Audio Coding 3
    Расширение режима : CM (complete main)
    Идентификатор кодека : 2000
    Продолжительность : 1 ч. 31 м.
    Вид битрейта : Постоянный
    Битрейт : 192 Кбит/сек
    Канал(ы) : 2 канала(ов)
    Расположение каналов : Front: L R
    Частота : 48, 0 КГц
    Битовая глубина : 16 бит
    Метод сжатия : С потерями
    Размер потока : 126 Мбайт (9%)
    Выравнивание : Разделение по промежуткам
    Продолжительность промежутка : 42 мс. (1, 00 видеокадр)
    Время предзагрузки промежутка : 500 ms
    Скриншоты

    Релиз подготовил: Leon-masl
    Залил: leon-masl

    Онлайн видео Голова над водой


    Размер скачиваемого торрента: 1.36 GB (1465634816 Bytes)

    Голова над водой/Head Above Water (1996) WEB-DLRip от Leon-masl | P
    загрузка...
    Рейтинг →
     (голосов: 1, оценка 5/5, голосовать можно 1 раз )

    Другие торренты по теме:

  • Голова над водой / Hodet over vannet (1993) DVDRip-AVC от ExKinoRay | A


    • Комментарии (0):

      Информация

      Информация

        Посетители, находящиеся в группе Гости, не могут оставлять комментарии в данной новости.

        ↓ Меню



        ↓ Опрос

        А Вы добавили сайт в закладки?
        Да
        Не


        Top 10 за месяц (Фильмы)