.
Авторизация | Регистрация
Хочешь лучшие торренты? Добавь свой email!
Добавить
» » Затерянный остров / Lile (2011) HDRip | P скачать торрент бесплатно




    Затерянный остров / Lile (2011) HDRip | P скачать торрент бесплатно

    Опубликовал: Админ | Дата: 23-03-2016, 05:00 | Просмотров: 101



    Детально о кино
    Русское название: Затерянный остров
    Русское название в мировом прокате: L;ile
    Создали в: 2011
    Категория жанра: Фантастика, приключения
    Главный режиссер: Оливье Буалло/Olivier Boillot

    Актеры
    Мишель Беатри, Сирьель Дебрей, Поль Декомб, Каддор Доргам, Жереми Дюпло младший

    Сюжет фильма
    1942 год. Военный самолёт терпит крушение и падает в Атлантический океан. Выжившие члены экипажа спасаются на шлюпке, которую прибивает к берегу. Лётчики оказываются на острове. Спустя некоторое время они находят заброшенный туннель и через него попадают в совершенно другой мир...

    Снималось в: Франция, Реюньон
    Киностудия: Ileprod
    Время просмотра: 01: 30: 38
    Перевод текста: Профессиональный (многоголосый, закадровый) - СТС
    Файл
    Тип видео: avi
    Качество фильма: HDRip (BDRip.1080p)
    Информация о видео: XviD, 656x368, 25fps, 1010kbps
    Информация о звуке: MPEG Layer 3, 2ch, 48000Hz, 128kbps

    MediaInfo

    General
    Complete name : Zaterannyi.Ostrov.2011.P.HDRip.700.CurHaJI.avi
    Format : AVI
    Format/Info : Audio Video Interleave
    File size : 744 MiB
    Duration : 1h 30mn
    Overall bit rate : 1 148 Kbps
    Movie name : Zaterannyi.Ostrov.2011.P.HDRip.700.CurHaJI
    Writing library : VirtualDub build 35491/release
    Video
    ID : 0
    Format : MPEG-4 Visual
    Format profile : Advanced Simple@L5
    Format settings, BVOP : 1
    Format settings, QPel : No
    Format settings, GMC : No warppoints
    Format settings, Matrix : Custom
    Codec ID : XVID
    Codec ID/Hint : XviD
    Duration : 1h 30mn
    Bit rate : 1 010 Kbps
    Width : 656 pixels
    Height : 368 pixels
    Display aspect ratio : 16: 9
    Frame rate : 25.000 fps
    Color space : YUV
    Chroma subsampling : 4: 2: 0
    Bit depth : 8 bits
    Scan type : Progressive
    Compression mode : Lossy
    Bits/(Pixel*Frame) : 0.167
    Stream size : 655 MiB (88%)
    Writing library : XviD 73
    Audio
    ID : 1
    Format : MPEG Audio
    Format version : Version 1
    Format profile : Layer 3
    Codec ID : 55
    Codec ID/Hint : MP3
    Duration : 1h 30mn
    Bit rate mode : Constant
    Bit rate : 128 Kbps
    Channel(s) : 2 channels
    Sampling rate : 48.0 KHz
    Compression mode : Lossy
    Stream size : 83.0 MiB (11%)
    Alignment : Split accross interleaves
    Interleave, duration : 40 ms (1.00 video frame)
    Interleave, preload duration : 500 ms
    Writing library : LAME3.99r
    Encoding settings : -m s -V 4 -q 2 -lowpass 17 -b 128

    Скриншоты



    Релиз подготовил:
    Залил: CurHaJI

    Онлайн видео Затерянный остров


    Размер скачиваемого торрента: 743.93 MB (780065350 Bytes)

    Затерянный остров/Lile (2011) HDRip | P
    загрузка...
    Рейтинг →
     (голосов: 1, оценка 4/5, голосовать можно 1 раз )

    Другие торренты по теме:

  • Затерянный остров / Lile (2011) HDRip | P
  • Затерянный остров / Lost Island (1994) VHSRip | A
  • Затерянный остров: Маджонг Приключение (2016) PC


    • Комментарии (0):

      Информация

      Информация

        Посетители, находящиеся в группе Гости, не могут оставлять комментарии в данной новости.

        ↓ Меню



        ↓ Опрос

        А Вы добавили сайт в закладки?
        Да
        Не


        Top 10 за месяц (Фильмы)