.
Авторизация | Регистрация
Хочешь лучшие торренты? Добавь свой email!
Добавить
» » След Сокола / Spur des Falken (1968) BDRip | Советский дубляж скачать торрент бесплатно




    След Сокола / Spur des Falken (1968) BDRip | Советский дубляж скачать торрент бесплатно

    Опубликовал: Админ | Дата: 17-03-2016, 05:00 | Просмотров: 120



    Детально о кино
    Русское название: След Сокола
    Русское название в мировом прокате: Spur des Falken
    Создали в: 1968
    Категория жанра: Драма, вестерн
    Главный режиссер: Готтфрид Кольдиц

    Актеры
    Гойко Митич, Ханьо Хассе, Барбара Брыльска, Хельмут Шрайбер, Фред Дельмаре, Хольгер Малих, Хорст Кубе, Дитмар Рихтер-Райник, Отар Коберидзе, Лаврентий Кочадзе, Альберт Георгадзе

    Сюжет фильма

    Во второй половине 19 века в Черных горах (Блэк-хиллс) было найдено золото. Весть об этой находке привлекает в Черные горы искателей приключений, бандитов, золотоискателей и дельцов, хотя согласно договору эти земли оставлены за индейцами племени дакота. В числе дельцов прибыл и Бладжен (Дубинка), спекулирующий земельными участками — он пытается любыми средствами согнать индейцев с их земли. Истребляя стада буйволов и вырезая целые деревни, им удается ослабить племя дакота. Между тем вождь Зоркий Сокол со своими воинами пытается раздобыть оружие. Чтобы отомстить, воины дакота нападают на город золотоискателей, здесь происходит настоящее кровавое сражение между белыми и индейцами. Белых может спасти от поражения только приход армии…

    Снималось в: Германия (ГДР)
    Киностудия: K?nstlerische Arbeitsgruppe ;Roter Kreis;, Kinostudiya ;;Gruziya-film;;, VEB DEFA-Studio f?r Spielfilme
    Время просмотра: 01: 48: 53
    Перевод текста: Полное дублирование Советский дубляж + вставки Ю.Сербина
    Файл
    Качество фильма: BDRip (исх.Spur des Falken (1968) Blu-ray Custom 1080i AVC DD2.0 )
    Кодек для видео: XviD
    Информация о видео: 720x304 (2, 35: 1), 25 fps, XviD ~1719 kbps avg, 0.314 bit/pixel
    Информация о звуке: 48 kHz, AC3, 2 ch, ~192.00 kbps avg | русский |Профессиональный (полное дублирование)Советский дубляж + вставки Ю.Сербина
    Субтитры: Отсутствуют
    Семпл
    Инфо-файл
    Общее
    Полное имя : Sled Sokola.1968.D.BDRip.avi
    Формат : AVI
    Формат/Информация : Audio Video Interleave
    Размер файла : 1, 46 Гбайт
    Продолжительность : 1 ч. 48 м.
    Общий поток : 1921 Кбит/сек
    Библиотека кодирования : VirtualDub build 35491/release
    Видео
    Идентификатор : 0
    Формат : MPEG-4 Visual
    Профиль формата : Advanced Simple@L5
    Параметр BVOP формата : 2
    Параметр QPel формата : Нет
    Параметр GMC формата : Без точки перехода
    Параметр матрицы формата : Default (MPEG)
    Идентификатор кодека : XVID
    Идентификатор кодека/Подсказка : XviD
    Продолжительность : 1 ч. 48 м.
    Битрейт : 1719 Кбит/сек
    Ширина : 720 пикселей
    Высота : 304 пикселя
    Соотношение сторон : 2, 35: 1
    Частота кадров : 25, 000 кадров/сек
    Цветовое пространство : YUV
    Субдискретизация насыщенности : 4: 2: 0
    Битовая глубина : 8 бит
    Тип развёртки : Прогрессивная
    Метод сжатия : С потерями
    Бит/(Пиксели*Кадры) : 0.314
    Размер потока : 1, 31 Гбайт (90%)
    Библиотека кодирования : XviD 73
    Аудио
    Идентификатор : 1
    Формат : AC-3
    Формат/Информация : Audio Coding 3
    Расширение режима : CM (complete main)
    Параметр Endianness формата : Big
    Идентификатор кодека : 2000
    Продолжительность : 1 ч. 48 м.
    Вид битрейта : Постоянный
    Битрейт : 192 Кбит/сек
    Каналы : 2 канала
    Расположение каналов : Front: L R
    Частота : 48, 0 КГц
    Метод сжатия : С потерями
    Размер потока : 150 Мбайт (10%)
    Выравнивание : Соединение по промежуткам
    Продолжительность промежутка : 40 мс. (1, 00 видеокадр)
    Время предзагрузки промежутка : 512 мс.
    Скриншоты

    Залил: admiralkz

    Онлайн видео След Сокола


    Размер скачиваемого торрента: 1.46 GB (1568844702 Bytes)

    След Сокола/Spur des Falken (1968) BDRip | Советский дубляж
    загрузка...
    Рейтинг →
     (голосов: 1, оценка 4/5, голосовать можно 1 раз )

    Другие торренты по теме:

  • След Сокола / Spur des Falken (1968) DVDRip-AVC


    • Комментарии (0):

      Информация

      Информация

        Посетители, находящиеся в группе Гости, не могут оставлять комментарии в данной новости.

        ↓ Меню



        ↓ Опрос

        А Вы добавили сайт в закладки?
        Да
        Не


        Top 10 за месяц (Фильмы)