.
Авторизация | Регистрация
Хочешь лучшие торренты? Добавь свой email!
Добавить
» » Белые цыпочки / White Chicks (2004) WEB-DLRip-AVC от NNM-CLUB | A | Unrated Edition скачать торрент бесплатно




    Белые цыпочки / White Chicks (2004) WEB-DLRip-AVC от NNM-CLUB | A | Unrated Edition скачать торрент бесплатно

    Опубликовал: Админ | Дата: 15-03-2016, 05:00 | Просмотров: 84


    Белые цыпочки/White Chicks (2004) WEB-DLRip-AVC

    Создали в: США/Revolution Studios, Wayans Bros. Entertainment, Gone North Productions
    Категория жанра: Комедия, Боевик
    Главный режиссер: Кинен Айвори Уайанс
    Актеры: Шоун Уайанс, Марлон Уайанс, Джейми Кинг, Фрэнки Фэйзон, Локлин Манро, Джон Хёрд, Бьюзи Филиппс, Терри Крюс, Бриттани Дэниэл, Эдди Велес

    Описание фильма

    Изрядно проштрафившиеся агенты ФБР (братья афро-американцы) решают обелить себя перед руководством. Причем как в переносном, так и в прямом смыслах. Их миссией становится защита двух сестер Уилтон, наследниц огромной гостиничной империи, от похищения во время их переезда из нью-йоркского аэропорта в отель Хэмптонс.
    Вновь переоценив свои способности, братья придумывают новый бредовый план — спрятать сестер в укромном месте, а самим переодеться и загримироваться в них, благо приезжих миллионерш в лицо мало кто знает.
    Все, что им теперь осталось сделать — убедить весь остальной мир (включая остальных сотрудников ФБР, охраняющих их, а также всех родных и близких сестер Уилтон) в том, что они действительно молодые, богатые бледнолицые миллионерки. Проколы и приколы подобное развитие событий вполне предусматривает…

    Возраст: 12+(зрителям, достигшим 12 лет)
    Рейтинг MPAA: PG-13(детям до 13 лет просмотр нежелателен)
    Дата мировой премьеры: 23 июня 2004
    Дата премьеры в России: 7 октября 2004, Каскад
    Дата выхода DVD/Blu-ray релиза: 24 февраля 2005, Columbia/Sony
    Релиз подготовил: K.E.N(NNM-CLUB)
    Время просмотра: 01: 54: 48
    Качество фильма видео: WEB-DLRip-AVC
    Перевод текста: Авторский (одноголосый, закадровый) х2
    Язык субтитров: Русский, английский
    Вид субтитров: Вшитые, отключаемые
    Информация о видео: AVC, 1024x556 (16: 9), 23.976 fps, 2 261 Kbps (0.166 bit/pixel)
    Информация о звуке #1: AC-3, 48.0 KHz, 6 ch, 448 Kbps, CBR (Russian) - авторский А. Карповский
    Информация о звуке #2: AC-3, 48.0 KHz, 6 ch, 448 Kbps, CBR (Russian) - авторский С.Визгунов
    Информация о звуке #3: AC-3, 48.0 KHz, 6 ch, 448 Kbps, CBR (English) - оригинал
    Mediainfo:

    Формат : Matroska
    Версия формата : Version 2
    Размер файла : 2, 89 Гбайт
    Продолжительность : 1 ч. 54 м.
    Общий поток : 3606 Кбит/сек
    Название фильма : Release by K.E.N
    Дата кодирования : UTC 2016-03-14 08: 46: 08
    Программа кодирования : mkvmerge v5.3.0 (;I could have danced;) built on Feb 9 2012 10: 38: 07
    Библиотека кодирования : libebml v1.2.3 + libmatroska v1.3.0
    Attachment : Yes
    Видео
    Идентификатор : 1
    Формат : AVC
    Формат/Информация : Advanced Video Codec
    Профиль формата : High@L4.1
    Параметр CABAC формата : Да
    Параметр ReFrames формата : 10 кадров
    Идентификатор кодека : V_MPEG4/ISO/AVC
    Продолжительность : 1 ч. 54 м.
    Битрейт : 2261 Кбит/сек
    Ширина : 1024 пикселя
    Высота : 556 пикселей
    Соотношение сторон : 1, 85: 1
    Режим частоты кадров : Постоянный
    Частота кадров : 23, 976 кадра/сек
    Цветовое пространство : YUV
    Субдискретизация насыщенности : 4: 2: 0
    Битовая глубина : 8 бит
    Тип развёртки : Прогрессивная
    Бит/(Пиксели*Кадры) : 0.166
    Размер потока : 1, 76 Гбайт (61%)
    Библиотека кодирования : x264 core 146 r2538 121396c
    Настройки программы : cabac=1/ref=10/deblock=1: -3: -3/analyse=0x3: 0x133/me=umh/subme=10/psy=1/psy_rd=1.00: 0.15/mixed_ref=1/me_range=32/chroma_me=1/trellis=2/8x8dct=1/cqm=0/deadzone=21, 11/fast_pskip=0/chroma_qp_offset=-3/threads=12/lookahead_threads=2/sliced_threads=0/nr=0/decimate=0/interlaced=0/bluray_compat=0/constrained_intra=0/bframes=8/b_pyramid=2/b_adapt=2/b_bias=0/direct=3/weightb=1/open_gop=0/weightp=2/keyint=240/keyint_min=23/scenecut=40/intra_refresh=0/rc=2pass/mbtree=0/bitrate=2261/ratetol=1.0/qcomp=0.60/qpmin=0/qpmax=69/qpstep=4/cplxblur=20.0/qblur=0.5/ip_ratio=1.40/pb_ratio=1.30/aq=2: 0.90
    Default : Да
    Forced : Нет
    Аудио #1
    Идентификатор : 2
    Формат : AC-3
    Формат/Информация : Audio Coding 3
    Расширение режима : CM (complete main)
    Параметр Endianness формата : Big
    Идентификатор кодека : A_AC3
    Продолжительность : 1 ч. 54 м.
    Вид битрейта : Постоянный
    Битрейт : 448 Кбит/сек
    Каналы : 6 каналов
    Расположение каналов : Front: L C R, Side: L R, LFE
    Частота : 48, 0 КГц
    Битовая глубина : 16 бит
    Метод сжатия : С потерями
    Размер потока : 368 Мбайт (12%)
    Заголовок : AC3 5.1 448Kbps (Авторский, одноголосый - А. Карповский)
    Язык : Russian
    Default : Да
    Forced : Нет
    Аудио #2
    Идентификатор : 3
    Формат : AC-3
    Формат/Информация : Audio Coding 3
    Расширение режима : CM (complete main)
    Параметр Endianness формата : Big
    Идентификатор кодека : A_AC3
    Продолжительность : 1 ч. 54 м.
    Вид битрейта : Постоянный
    Битрейт : 448 Кбит/сек
    Каналы : 6 каналов
    Расположение каналов : Front: L C R, Side: L R, LFE
    Частота : 48, 0 КГц
    Битовая глубина : 16 бит
    Метод сжатия : С потерями
    Размер потока : 368 Мбайт (12%)
    Заголовок : AC3 5.1 448Kbps (Авторский, одноголосый - С. Визгунов)
    Язык : Russian
    Default : Нет
    Forced : Нет
    Аудио #3
    Идентификатор : 4
    Формат : AC-3
    Формат/Информация : Audio Coding 3
    Расширение режима : CM (complete main)
    Параметр Endianness формата : Big
    Идентификатор кодека : A_AC3
    Продолжительность : 1 ч. 54 м.
    Вид битрейта : Постоянный
    Битрейт : 448 Кбит/сек
    Каналы : 6 каналов
    Расположение каналов : Front: L C R, Side: L R, LFE
    Частота : 48, 0 КГц
    Битовая глубина : 16 бит
    Метод сжатия : С потерями
    Размер потока : 368 Мбайт (12%)
    Заголовок : AC3 5.1 448Kbps (Оригинал)
    Язык : English
    Default : Нет
    Forced : Нет
    Текст #1
    Идентификатор : 5
    Формат : UTF-8
    Идентификатор кодека : S_TEXT/UTF8
    Идентификатор кодека/Информация : UTF-8 Plain Text
    Язык : Russian
    Default : Нет
    Forced : Нет
    Текст #2
    Идентификатор : 6
    Формат : UTF-8
    Идентификатор кодека : S_TEXT/UTF8
    Идентификатор кодека/Информация : UTF-8 Plain Text
    Язык : English
    Default : Нет
    Forced : Нет

    Скриншоты:


    Онлайн видео Белые цыпочки


    Размер скачиваемого торрента: 2.89 GB (3105259260 Bytes)

    Белые цыпочки/White Chicks (2004) WEB-DLRip-AVC от NNM-CLUB | A | Unrated Edition
    загрузка...
    Рейтинг →
     (голосов: 1, оценка 3/5, голосовать можно 1 раз )

    Другие торренты по теме:

  • Белые, белые аисты / 1966 / РУ / DVB
  • Белые, белые аисты / 1966 / РУ / DVB
  • Белые росы. Возвращение / Белые Росы 2 (2014) SATRip от ExKinoRay
  • Белые Ястребы - Выбор за тобой (2011) MP3
  • Белые люди не умеют прыгать / Баскетбол - игра для чёрных / White Men Cant Jump (1992) BDRip-AVC от 0ptimus | P, A
  • Белые суставы / White Knuckles (2010) SATRip от RG MixTorrent | P2
  • Белые волки (2012) IPTVRip
  • Игорь Саруханов - Черные, белые полосы (2012) FLAC


    • Комментарии (0):

      Информация

      Информация

        Посетители, находящиеся в группе Гости, не могут оставлять комментарии в данной новости.

        ↓ Меню



        ↓ Опрос

        А Вы добавили сайт в закладки?
        Да
        Не


        Top 10 за месяц (Фильмы)