.
Авторизация | Регистрация
Хочешь лучшие торренты? Добавь свой email!
Добавить
» » Шпионский мост / Bridge of Spies (2015) ВDRip от ExKinoRay | Лицензия скачать торрент бесплатно




    Шпионский мост / Bridge of Spies (2015) ВDRip от ExKinoRay | Лицензия скачать торрент бесплатно

    Опубликовал: Админ | Дата: 13-03-2016, 12:32 | Просмотров: 104



    Детально о кино
    Русское название: Шпионский мост
    Русское название в мировом прокате: Bridge of Spies
    Создали в: 2015
    Категория жанра: Триллер, драма, биография, история
    Главный режиссер: Стивен Спилберг/Steven Spielberg

    Актеры
    Том Хэнкс, Марк Райлэнс, Эми Райан, Алан Алда, Остин Стоуэлл, Скотт Шеперд, Джесси Племонс, Доменик Ломбардоззи, Себастьян Кох, Ив Хьюсон

    Сюжет фильма

    Действие фильма происходит на фоне серии реальных исторических событий и рассказывает о бруклинском адвокате Джеймсе Доноване, который оказывается в эпицентре холодной войны, когда ЦРУ отправляет его на практически невозможное задание — договориться об освобождении захваченного в СССР американского пилота самолета-разведчика U2.

    Снималось в: США, Индия, Германия, Amblin Entertainment, DreamWorks SKG, Fox 2000 Pictures
    Время просмотра: 02: 21: 19
    Перевод текста: Профессиональный (полное дублирование) - Лицензия
    Файл
    Качество фильма: BDRip
    Информация о видео: XviD, 1755 Кбит/с, 720x304
    Информация о звуке: AC3, 6 ch, 448 Кбит/с
    Субтитры: Русские форсированные, вшитые на немецкую речь и надписи.
    Инфо файл
    Общее
    Полное имя : D: ВидеоBridge of Spies.2015.BDRip . by Vovan366(ExKinoRay).avi
    Формат : AVI
    Формат/Информация : Audio Video Interleave
    Профиль формата : OpenDML
    Размер файла : 2, 19 Гбайт
    Продолжительность : 2 ч. 21 м.
    Общий поток : 2215 Кбит/сек
    Программа кодирования : VirtualDubMod 1.5.10.3 (build 2550/release)
    Библиотека кодирования : VirtualDubMod build 2550/release
    Видео
    Идентификатор : 0
    Формат : MPEG-4 Visual
    Профиль формата : Advanced Simple@L5
    Параметр BVOP формата : 2
    Параметр QPel формата : Нет
    Параметр GMC формата : Без точки перехода
    Параметр матрицы формата : Выборочная
    Идентификатор кодека : XVID
    Идентификатор кодека/Подсказка : XviD
    Продолжительность : 2 ч. 21 м.
    Битрейт : 1755 Кбит/сек
    Ширина : 720 пикселей
    Высота : 304 пикселя
    Соотношение сторон : 2, 35: 1
    Частота кадров : 23, 976 кадра/сек
    Цветовое пространство : YUV
    Субдискретизация насыщенности : 4: 2: 0
    Битовая глубина : 8 бит
    Тип развёртки : Прогрессивная
    Метод сжатия : С потерями
    Бит/(Пиксели*Кадры) : 0.334
    Размер потока : 1, 73 Гбайт (79%)
    Библиотека кодирования : XviD 73
    Аудио
    Идентификатор : 1
    Формат : AC-3
    Формат/Информация : Audio Coding 3
    Расширение режима : CM (complete main)
    Параметр Endianness формата : Big
    Идентификатор кодека : 2000
    Продолжительность : 2 ч. 21 м.
    Вид битрейта : Постоянный
    Битрейт : 448 Кбит/сек
    Каналы : 6 каналов
    Расположение каналов : Front: L C R, Side: L R, LFE
    Частота : 48, 0 КГц
    Битовая глубина : 16 бит
    Метод сжатия : С потерями
    Размер потока : 453 Мбайт (20%)
    Выравнивание : Разделение по промежуткам
    Продолжительность промежутка : 42 мс. (1, 00 видеокадр)
    Время предзагрузки промежутка : 500 мс.
    Скриншоты



    Релиз подготовил:
    Rip by: Vovan366
    Залил: Wazzzup RK

    Онлайн видео Шпионский мост


    Размер скачиваемого торрента: 2.19 GB (2347653120 Bytes)

    Шпионский мост/Bridge of Spies (2015) ВDRip от ExKinoRay | Лицензия
    загрузка...
    Рейтинг →
     (голосов: 1, оценка 4/5, голосовать можно 1 раз )

    Другие торренты по теме:

  • Шпионский мост / Bridge of Spies (2015) WEBRip 1080p | Трейлер
  • Шпионский мост (2015) качество DVDRip
  • Шпионский мост / Bridge of Spies (2015) CAMRip
  • Шпионский мост / Bridge of Spies (2015) WEBRip | Звук c CAMRip
  • Шпионский мост / Bridge of Spies (2015) BDRip-AVC | Чистый звук
  • Шпионский мост / Bridge of Spies (2015) BDRip-AVC от HELLYWOOD | iTunes
  • Шпионский мост / Bridge of Spies (2015) BDRip от Twi7ter | iTunes
  • Шпионский мост (2015)


    • Комментарии (0):

      Информация

      Информация

        Посетители, находящиеся в группе Гости, не могут оставлять комментарии в данной новости.

        ↓ Меню



        ↓ Опрос

        А Вы добавили сайт в закладки?
        Да
        Не


        Top 10 за месяц (Фильмы)