.
Авторизация | Регистрация
Хочешь лучшие торренты? Добавь свой email!
Добавить
» » Пасечник (2016) HDTVRip от GeneralFilm скачать торрент бесплатно




    Пасечник (2016) HDTVRip от GeneralFilm скачать торрент бесплатно

    Опубликовал: Админ | Дата: 11-03-2016, 12:45 | Просмотров: 76



    Детально о кино
    Русское название в мировом прокате: Пасечник
    Создали в: 2016
    Категория жанра: Детектив, криминал, боевик
    Главный режиссер: Сергей Быстрицкий

    Актеры
    Анатолий Журавлёв, Анастасия Панина, Иван Шмаков, Александр Носик, Иван Агапов, Максим Глотов, Бесо Гатаев, Сергей Шарифуллин, Максим Туранцев, Владимир Яковлев (II), Федор Румянцев, Максим Фролов, Сергей Друзьяк, Екатерина Сахарова, Олег Ребров, Александра Булычёва, Ричард Бондарев, Евгений Рябов, Алексей Герасимов (II), Наталья Барило, Андрей Харыбин, Леонид Тележинский, Александр Пацевич, Сергей Макаров (V), Андрей Сергеев (IV)

    Сюжет фильма

    В новых сериях главный герой Глеб Збруев отстраивает пасеку, а тем временем ждут своего часа… полицейский китель и фуражка! Глеб возвращается в органы, но не в качестве сыскаря — эту страницу своей биографии он уже перевернул. Пасечник становится участковым — вместо Васи Клюева, которому с учетом его профессиональных заслуг и образования предлагают работу следователя в Климово. Теперь кабинет Клюева находится в том же здании ОВД, где работает Глеб. В наследство от Василия участковому достается Перепилец. Бравая троица и составит в новом сезон любимого сериалае костяк законников, противостоящих злу в Климовском районе. Им придется расследовать дела коллекторов и черных риелторов, убийство курьера, которое было совершено из похищенного у Перепильца табельного оружия, ловить вооруженного дезертира, сбежавшего из воинской части, а также разбираться со множеством других, запутанных и опасных преступлений.
    Снималось в: Россия
    Киностудия: Анкор-Студио по заказу НТВ
    Время просмотра: 30 x ~ 00: 45: 00
    Перевод текста: Не требуется
    Файл
    Качество фильма: HDTVRip
    Информация о видео: XviD, ~ 750 Кбит/с, 656х368
    Информация о звуке: MP3, 2 ch, 128 Кбит/с
    МедиаИнфо
    Pasechnik.S02.2016.XviD.HDTVRip.by.GeneralFilmSerija.01.avi
    Формат : AVI
    Формат/Информация : Audio Video Interleave
    Размер файла : 278 Мбайт
    Продолжительность : 43 м.
    Общий поток : 900 Кбит/сек
    Программа кодирования : VirtualDubMod 1.5.10.3 | www.virtualdub-fr.org || (build 2550/release)
    Библиотека кодирования : VirtualDubMod build 2550/release
    Видео
    Идентификатор : 0
    Формат : MPEG-4 Visual
    Профиль формата : Advanced Simple@L5
    Параметр BVOP формата : 1
    Параметр QPel формата : Нет
    Параметр GMC формата : Без точки перехода
    Параметр матрицы формата : Выборочная
    Идентификатор кодека : XVID
    Идентификатор кодека/Подсказка : XviD
    Продолжительность : 43 м.
    Битрейт : 762 Кбит/сек
    Ширина : 656 пикселей
    Высота : 368 пикселей
    Соотношение сторон : 16: 9
    Частота кадров : 25, 000 кадров/сек
    Цветовое пространство : YUV
    Субдискретизация насыщенности : 4: 2: 0
    Битовая глубина : 8 бит
    Тип развёртки : Прогрессивная
    Метод сжатия : С потерями
    Бит/(Пиксели*Кадры) : 0.126
    Размер потока : 235 Мбайт (85%)
    Библиотека кодирования : XviD 73
    Аудио
    Идентификатор : 1
    Формат : MPEG Audio
    Версия формата : Version 1
    Профиль формата : Layer 3
    Идентификатор кодека : 55
    Идентификатор кодека/Подсказка : MP3
    Продолжительность : 43 м.
    Вид битрейта : Постоянный
    Битрейт : 128 Кбит/сек
    Каналы : 2 канала
    Частота : 48, 0 КГц
    Метод сжатия : С потерями
    Размер потока : 39, 6 Мбайт (14%)
    Выравнивание : Соединение по промежуткам
    Продолжительность промежутка : 40 мс. (1, 00 видеокадр)
    Время предзагрузки промежутка : 504 мс.
    Библиотека кодирования : LAME3.99r
    Залил: vsobbol
    Размер скачиваемого торрента: 8.15 GB (8755113984 Bytes)


    Пасечник (2016) HDTVRip от GeneralFilm
    загрузка...
    Рейтинг →
     (голосов: 1, оценка 4/5, голосовать можно 1 раз )

    Другие торренты по теме:

  • Пасечник (2013) HDTVRip от Files-x
  • Пасечник (2013) HDTVRip-AVC от Files-x
  • Пасечник (2016) HDTVRip-AVC от Files-x
  • Пасечник (2016) HDTVRip от Files-x


    • Комментарии (0):

      Информация

      Информация

        Посетители, находящиеся в группе Гости, не могут оставлять комментарии в данной новости.

        ↓ Меню



        ↓ Опрос

        А Вы добавили сайт в закладки?
        Да
        Не


        Top 10 за месяц (Фильмы)