.
Авторизация | Регистрация
Хочешь лучшие торренты? Добавь свой email!
Добавить
» » Добровольцы / Taking Chance (2009) HDTV 1080i | P скачать торрент бесплатно




    Добровольцы / Taking Chance (2009) HDTV 1080i | P скачать торрент бесплатно

    Опубликовал: Админ | Дата: 11-03-2016, 05:00 | Просмотров: 104



    Детально о кино
    Русское название: Добровольцы
    Русское название в мировом прокате: Taking Chance
    Создали в: 2009
    Категория жанра: драма, военный
    Главный режиссер: Росс Кац/Ross Katz

    Актеры
    Кевин Бейкон, Том Элдридж, Николас Арт, Бланш Бэйкер, Том Блум, Гай Бойд, Джеймс Кастаниен, Гордон Клэпп, Майк Колтер, Генри Кой

    Сюжет фильма

    Фильм основан на реальной истории и рассказывает о путешествии на Родину лейтенанта Майкла Стробла, сопровождающего в маленький городок в штате Вайоминг гроб с телом погибшего в Ираке 19-летнего юноши.

    Снималось в: США
    Киностудия: HBO Films, Civil Dawn Pictures, Motion Picture Corporation of America (MPCA)
    Время просмотра: 01: 12: 21.840
    Перевод текста: Профессиональный (многоголосый закадровый)по заказу Amedia
    Файл
    Кодек для видео: h.264
    Качество фильма: HDTV 1080iAmedia Hit
    Информация о видео: 1920x1080 (16: 9), 25.000 fps, AVC, ~6660 Kbps, 0.128 bits/pixel
    Информация о звуке:
    Русский, 48.0 KHz, AC3, 6 ch, 384 Kbps
    Английский, 48.0 KHz, AC3, 6 ch, 384 Kbps
    Субтитры: нет
    MI
    Общее
    Уникальный идентификатор : 245141446208288444105103477303115353440 (0xB86C86729BE31E61B8078CABFC058D60)
    Полное имя : E: FILMSDobrovolcy.2009.HDTV1080i.mkv
    Формат : Matroska
    Версия формата : Version 4/Version 2
    Размер файла : 3, 83 Гбайт
    Продолжительность : 1 ч. 12 м.
    Общий поток : 7579 Кбит/сек
    Дата кодирования : UTC 2016-03-08 21: 32: 52
    Программа кодирования : mkvmerge v8.9.0 (;Father Daughter;) 64bit
    Библиотека кодирования : libebml v1.3.3 + libmatroska v1.4.4
    Видео
    Идентификатор : 1
    Формат : AVC
    Формат/Информация : Advanced Video Codec
    Профиль формата : High@L4
    Параметр CABAC формата : Да
    Параметр ReFrames формата : 4 кадра
    Идентификатор кодека : V_MPEG4/ISO/AVC
    Продолжительность : 1 ч. 12 м.
    Битрейт : 6809 Кбит/сек
    Ширина : 1920 пикселей
    Высота : 1080 пикселей
    Соотношение сторон : 16: 9
    Режим частоты кадров : Постоянный
    Частота кадров : 25, 000 кадров/сек
    Стандарт вещания : Component
    Цветовое пространство : YUV
    Субдискретизация насыщенности : 4: 2: 0
    Битовая глубина : 8 бит
    Тип развёртки : MBAFF
    Метод сохранения типа развёртки : Чередующиеся поля
    Порядок развёртки : Верхнее поле первое
    Бит/(Пиксели*Кадры) : 0.131
    Размер потока : 3, 44 Гбайт (90%)
    Default : Нет
    Forced : Нет
    Цветовой диапазон : Limited
    Основные цвета : BT.709
    Характеристики трансфера : BT.709
    Коэффициенты матрицы : BT.709
    Аудио #1
    Идентификатор : 2
    Формат : AC-3
    Формат/Информация : Audio Coding 3
    Расширение режима : CM (complete main)
    Параметр Endianness формата : Big
    Идентификатор кодека : A_AC3
    Продолжительность : 1 ч. 12 м.
    Вид битрейта : Постоянный
    Битрейт : 384 Кбит/сек
    Каналы : 6 каналов
    Расположение каналов : Front: L C R, Side: L R, LFE
    Частота : 48, 0 КГц
    Частота кадров : 31, 250 кадров/сек (1536 spf)
    Метод сжатия : С потерями
    Размер потока : 199 Мбайт (5%)
    Язык : Russian
    Default : Да
    Forced : Нет
    Аудио #2
    Идентификатор : 3
    Формат : AC-3
    Формат/Информация : Audio Coding 3
    Расширение режима : CM (complete main)
    Параметр Endianness формата : Big
    Идентификатор кодека : A_AC3
    Продолжительность : 1 ч. 12 м.
    Вид битрейта : Постоянный
    Битрейт : 384 Кбит/сек
    Каналы : 6 каналов
    Расположение каналов : Front: L C R, Side: L R, LFE
    Частота : 48, 0 КГц
    Частота кадров : 31, 250 кадров/сек (1536 spf)
    Метод сжатия : С потерями
    Размер потока : 199 Мбайт (5%)
    Язык : English
    Default : Нет
    Forced : Нет

    Скриншоты

    Релиз подготовил: Temperest
    Залил: Temperest

    Онлайн видео Добровольцы


    Размер скачиваемого торрента: 3.83 GB (4113439830 Bytes)

    Добровольцы/Taking Chance (2009) HDTV 1080i | P
    загрузка...
    Рейтинг →
     (голосов: 1, оценка 5/5, голосовать можно 1 раз )

    Другие торренты по теме:

  • Добровольцы поневоле / Stripes (1981) BDRip 720p by msltel | P, P2, A, L1 | Расширенная версия скачать через торрент бесплатно
  • Добровольцы поневоле / Stripes (1981) BDRip 1080p by msltel | P, P2, A, L1 | Расширенная версия скачать через торрент бесплатно


    • Комментарии (0):

      Информация

      Информация

        Посетители, находящиеся в группе Гости, не могут оставлять комментарии в данной новости.

        ↓ Меню



        ↓ Опрос

        А Вы добавили сайт в закладки?
        Да
        Не


        Top 10 за месяц (Фильмы)